<?xml version="1.0" standalone="no"?>
<!DOCTYPE svg PUBLIC "-//W3C//DTD SVG 1.1//EN" "http://www.w3.org/Graphics/SVG/1.1/DTD/svg11.dtd" >
<svg xmlns="http://www.w3.org/2000/svg">
<metadata>
This is a custom SVG font generated by IcoMoon.
<iconset grid="16"></iconset>
</metadata>
<defs>
<font id="icomoon" horiz-adv-x="512" >
<font-face units-per-em="512" ascent="480" descent="-32" />
<missing-glyph horiz-adv-x="512" />
<glyph class="hidden" unicode="&#xf000;" d="M0,480L 512 -32L0 -32 z" horiz-adv-x="0" />
<glyph unicode="&#xe000;" d="M 471.012,73.256l-2.691,2.688l 0.006,0.006L 360.812,183.471c 14.937,25.73, 23.615,55.564, 23.818,87.448
	c 0.631,97.618-77.989,177.245-175.596,177.856c-0.393,0.004-0.774,0.004-1.167,0.004c-97.062-0.004-176.067-78.391-176.693-175.598
	c-0.617-97.609, 78-177.237, 175.598-177.859c 0.387,0, 0.764,0, 1.15,0c 32.447,0, 62.846,8.787, 89,24.070l 107.421-107.429l 0.010,0.010
	l 2.688-2.687c 8.123-8.123, 21.292-8.117, 29.414,0l 34.556,34.552C 479.129,51.957, 479.134,65.131, 471.012,73.256z M 300.693,178.643
	c-24.835-24.668-57.778-38.252-92.77-38.252l-0.862,0 c-72.591,0.465-131.276,59.906-130.816,132.504
	c 0.464,72.127, 59.511,130.809, 131.628,130.816l 0.877,0 c 35.169-0.223, 68.144-14.127, 92.849-39.15
	c 24.706-25.027, 38.188-58.177, 37.963-93.352C 339.34,236.189, 325.537,203.314, 300.693,178.643z M 121.817,245.984l 177.254,0 l0,54.224 
	L 121.817,300.208 L 121.817,245.984 z"  />
<glyph unicode="&#xe001;" d="M 435.303,330.936l-98.088,0 l0-157.718 c 6.49,2.222, 13.489,3.465, 20.782,3.465c 30.004,0, 55.184-20.733, 61.983-48.691l 50.23,0 
			L 470.21,246.271 L 435.303,330.936z M 387.264,241.528l-23.691,64.454l 55.039,0 l 26.566-64.454L 387.264,241.528 z M 286.919,374.301L 65.512,374.301 
			c-13.359,0-24.183-10.829-24.183-24.17l0-223.154 l 31.347,0 c 6.426,28.45, 31.852,49.706, 62.211,49.706
			c 30.414,0, 55.84-21.256, 62.25-49.706l 98.612,0 c 2.519,11.086, 7.882,21.092, 15.353,29.168L 311.102,350.131 
			C 311.102,363.472, 300.277,374.301, 286.919,374.301z M 134.887,151.734c-21.418,0-38.847-17.436-38.847-38.887
			s 17.429-38.887, 38.847-38.887c 21.47,0, 38.901,17.436, 38.901,38.887S 156.356,151.734, 134.887,151.734z M 357.997,151.734
			c-21.452,0-38.901-17.436-38.901-38.887s 17.449-38.887, 38.901-38.887s 38.882,17.436, 38.882,38.887
			S 379.449,151.734, 357.997,151.734z"  />
<glyph unicode="&#xe002;" d="M 471.823,72.599l-2.69,2.691l 0.005,0.006L 361.623,182.814c 14.938,25.734, 23.617,55.566, 23.822,87.453
	c 0.627,97.611-77.992,177.241-175.599,177.854c-0.394,0.002-0.773,0.002-1.167,0.002c-97.062-0.006-176.067-78.389-176.693-175.599
	c-0.617-97.608, 78-177.231, 175.598-177.857c 0.385-0.005, 0.762-0.005, 1.149-0.005c 32.445,0, 62.846,8.792, 89.003,24.078
	l 107.42-107.435l 0.010,0.010l 2.688-2.685c 8.121-8.125, 21.289-8.118, 29.412,0l 34.556,34.555
	C 479.94,51.303, 479.944,64.479, 471.823,72.599z M 301.504,177.983c-24.832-24.667-57.781-38.251-92.77-38.251l-0.861,0.004
	C 135.283,140.2, 76.598,199.64, 77.057,272.235c 0.226,35.015, 14.030,67.888, 38.875,92.563c 24.833,24.667, 57.773,38.252, 92.751,38.252
	l 0.882,0 c 35.164-0.223, 68.138-14.121, 92.847-39.146c 24.705-25.028, 38.189-58.178, 37.963-93.354
	C 340.152,235.537, 326.348,202.661, 301.504,177.983z M 238.365,364.2l-54.219,0 l0-61.519 l-61.516,0 l0-54.222 l 61.516,0 l0-61.519 l 54.219,0 L 238.365,248.46 
	l 61.52,0 l0,54.222 l-61.52,0 L 238.365,364.2 z"  />
<glyph unicode="&#xe003;" d="M 239.408,79.922l 27.732,0 l0,38.637 l-27.732,0 L 239.408,79.922 z M 398.535,441.859L 289.933,441.859 l0-12.911 l-52.355,0 L 237.578,411.68 l-21.519,0 l0,30.18 L 113.047,441.86 
			c-13.373,0-24.164-10.822-24.164-24.162l0-386.011 c0-13.359, 10.791-24.169, 24.164-24.169l 285.488,0 
			c 13.343,0, 24.164,10.81, 24.164,24.169L 422.699,417.697 C 422.699,431.037, 411.878,441.859, 398.535,441.859z M 252.621,413.572l 36.296,0 l0-30.771 L 267.4,382.801 
			L 267.4,400.067 l-14.779,0 L 252.621,413.572 z M 252.621,356.545l 36.296,0 l0-30.771 L 267.4,325.774 l0,17.262 l-14.779,0 L 252.621,356.545 z M 252.621,300.559l 36.296,0 l0-30.771 L 267.4,269.788 
			l0,17.264 l-14.779,0 L 252.621,300.559 z M 252.621,242.088l 36.296,0 l0-13.524 l-36.296,0 L 252.621,242.088 z M 216.059,385.423l 36.332,0 l0-13.511 l-14.813,0 l0-17.266 
			l-21.519,0 L 216.059,385.423 z M 216.059,329.434l 36.332,0 l0-13.507 l-14.813,0 l0-17.263 l-21.519,0 L 216.059,329.434 z M 216.059,270.963l 36.332,0 l0-13.521 l-14.813,0 l0-17.283 
			l-21.519,0 L 216.059,270.963 z M 275.608,63.209l-44.702,0 c-13.899,0-23.513,11.214-21.454,24.951l 7.522,49.15
			c 2.062,13.707, 15.142,24.919, 29.007,24.919l 14.552,0 c 13.866,0, 26.913-11.212, 29.005-24.919l 7.491-49.15
			C 299.153,74.423, 289.507,63.209, 275.608,63.209z M 266.713,178.909l-27.827,0 l-33.324,32.326l 94.475,0 L 266.713,178.909z"  />
<glyph unicode="&#xe004;" d="M 374.236,367.104l 0.002,0.004c-34.665,28.842-76.951,42.994-118.78,42.969c-48.281,0.027-96.382-18.878-132.321-55.332
	L 87.027,384.867l-0.608-116.069l 114.082,21.411l-37.78,31.516c 25.665,24.441, 59.003,36.957, 92.737,36.984
	c 30.38-0.027, 60.723-10.141, 85.939-31.095c 32.061-26.661, 48.504-64.85, 48.546-103.566c-0.007-5.596-0.357-11.188-1.053-16.753
	l 52.271,9.994c 0.081,2.255, 0.14,4.508, 0.14,6.759C 441.339,277.301, 418.419,330.38, 374.236,367.104z M 348.735,127.229
	c-25.753-24.888-59.396-37.631-93.449-37.658c-30.388,0.018-60.733,10.15-85.939,31.084
	c-32.057,26.664-48.517,64.861-48.552,103.569c 0.006,6.409, 0.486,12.812, 1.397,19.17l-52.507-9.854
	c-0.153-3.104-0.255-6.21-0.255-9.315c-0.031-53.254, 22.898-106.347, 67.080-143.068c 34.652-28.817, 76.939-42.97, 118.775-42.952l 0.136,0 
	c 48.598,0, 97.016,19.191, 133.003,56.146l 34.503-28.586l 0.214,116.073l-114.007-21.804L 348.735,127.229z"  />
<glyph unicode="&#xe005;" d="M 324.816,307.228l 0.014-0.027c-0.080,0.108-0.146,0.213-0.242,0.319c-4.22,5.829-8.39,11.433-12.461,16.761
			c-5.395,9.025-8.242,20.006-1.619,35.849l0,0.009 l 22.776,54.505l-35.808,16.298l 3.696,16.156l-89.834,0 l 4.708-20.585l-36.804-11.869
			l 22.761-54.505l 0.018-0.009c 11.247-26.945-4.856-39.813-14.325-52.928c-46.861-64.796-99.313-157.564-99.313-213.49
			c0-92.734, 72.008-89.646, 167.857-89.646c 95.881,0, 167.889-3.088, 167.889,89.646C 424.129,149.646, 371.662,242.414, 324.816,307.228z
			 M 233.678,352.732l 45.879,0 l0-28.931 l-45.879,0 L 233.678,352.732 z M 307.109,173.363l0-20.791 l-31.283,0 l-3.282-6.344l0-10.058 l 34.565,0 l0-20.782 l-34.565,0 
			l0-30.181 l-33.245,0 l0,30.181 l-34.336,0 l0,20.782 l 34.336,0 l0,10.058 l-3.041,6.344l-31.295,0 l0,20.791 l 20.801,0 l-33.489,68.015l 35.449,0 
			l 28.859-68.015l 28.221,68.015l 35.435,0 l-33.915-68.015L 307.109,173.363 z"  />
<glyph unicode="&#xe006;" d="M 314.439,158.699c-0.186-0.035-0.383-0.063-0.572-0.101l-48.846,40.456l-0.078-45.663c-3.168-0.091-6.352-0.155-9.566-0.153
	c-47.775-0.073-90.82,10.348-119.785,25.578c-14.496,7.545-25.336,16.229-31.842,24.324c-6.559,8.225-8.87,15.079-8.914,21.718
	c 0.034,7.984, 3.546,16.798, 13.858,27.144c 10.181,10.146, 26.818,20.4, 48.036,28.213c 1.189,0.44, 2.406,0.867, 3.621,1.293
	l-44.539,36.889c-16.619-8.232-31.257-18.090-43.229-29.865c-17.119-16.768-29.14-38.85-29.106-63.673
	c-0.046-20.229, 8.065-38.979, 20.353-54.034c 18.569-22.71, 46.073-39.182, 78.877-50.871c 32.865-11.58, 71.375-18.061, 112.67-18.078
	c 3.18,0, 6.334,0.053, 9.479,0.131l-0.088-50.725l 89.646,73.732l-39.975,33.109L 314.439,158.699 z M 245.957,396.889l-89.646-73.73l 89.396-74.040
	l 0.078,47.212c 3.18,0.092, 6.368,0.154, 9.591,0.152c 47.769,0.062, 90.814-10.352, 119.773-25.583
	c 14.5-7.544, 25.336-16.229, 31.84-24.326c 6.555-8.226, 8.867-15.079, 8.915-21.715c-0.024-4.641-1.142-9.16-3.951-14.378
	c-4.159-7.764-12.634-16.785-25.487-25.085c-9.574-6.226-21.463-12.005-35.111-16.857l 44.471-36.833
	c 13.242,6.638, 25.173,14.355, 35.52,23.203c 10.465,9.006, 19.322,19.266, 25.735,31.030c 6.397,11.718, 10.208,25.077, 10.19,38.92l0,0.168 
	c0,20.162-8.104,38.849-20.361,53.859c-18.572,22.716-46.064,39.181-78.877,50.872c-32.856,11.582-71.361,18.062-112.656,18.080
	c-3.193,0-6.343-0.1-9.502-0.177L 245.957,396.889z"  />
<glyph unicode="&#xe007;" d="M 190.071,161.481c-0.035,0.189-0.064,0.387-0.102,0.575l 40.457,48.848l-45.662,0.078c-0.091,3.168-0.155,6.35-0.153,9.566
	c-0.072,47.771, 10.348,90.818, 25.58,119.785c 7.543,14.494, 16.227,25.336, 24.323,31.838c 8.224,6.562, 15.078,8.871, 21.716,8.918
	c 7.986-0.035, 16.798-3.545, 27.148-13.859c 10.144-10.182, 20.397-26.819, 28.208-48.035c 0.439-1.189, 0.866-2.408, 1.293-3.621
	l 36.89,44.537c-8.234,16.621-18.093,31.258-29.868,43.23c-16.765,17.115-38.849,29.141-63.671,29.104
	c-20.229,0.047-38.979-8.065-54.033-20.353c-22.712-18.569-39.184-46.071-50.871-78.876c-11.58-32.864-18.061-71.377-18.080-112.668
	c0-3.18, 0.056-6.336, 0.132-9.479l-50.725,0.084l 73.73-89.646l 33.111,39.974L 190.071,161.481 z M 428.264,229.967l-73.735,89.644
	l-74.039-89.394l 47.216-0.078c 0.089-3.18, 0.151-6.366, 0.151-9.59c 0.061-47.768-10.354-90.816-25.586-119.775
	c-7.544-14.498-16.229-25.332-24.325-31.836c-8.224-6.561-15.080-8.87-21.715-8.916c-4.641,0.021-9.16,1.14-14.378,3.949
	c-7.76,4.158-16.786,12.632-25.084,25.487c-6.225,9.573-12.009,21.462-16.858,35.11l-36.834-44.471
	c 6.64-13.242, 14.357-25.176, 23.206-35.52c 9.006-10.463, 19.268-19.326, 31.029-25.735c 11.718-6.399, 25.078-10.21, 38.919-10.189l 0.168,0 
	c 20.164,0, 38.849,8.104, 53.86,20.358c 22.715,18.574, 39.18,46.066, 50.873,78.881c 11.58,32.855, 18.060,71.36, 18.080,112.656
	c-0.002,3.191-0.103,6.34-0.177,9.5L 428.264,229.967z"  />
<glyph unicode="&#xe008;" d="M 411.685,318.424l-48.849,13.089l-13.093,48.851l 49.864,49.864c-29.43,7.945-62.171,0.389-85.272-22.712
	c-23.24-23.237-30.747-56.229-22.568-85.794L 157.22,187.174c-29.565,8.176-62.555,0.668-85.797-22.569
	c-23.1-23.101-30.655-55.843-22.71-85.274l 49.866,49.861l 48.85-13.088l 13.090-48.851l-49.864-49.864
	c 29.43-7.941, 62.172-0.386, 85.271,22.715c 24.258,24.254, 31.373,59.141, 21.405,89.658L 349.183,261.61
	c 30.52-9.972, 65.401-2.853, 89.653,21.404c 23.103,23.101, 30.657,55.843, 22.713,85.273L 411.685,318.424z"  />
<glyph unicode="&#xe009;" d="M 271.017,70.2L 271.017,205.803 c 64.194,7.588, 114.194,62.334, 114.194,128.535c0,18.39-4.25,55.384-15.729,76.408l-8.111,14.917
	L 150.118,425.663 l-8.142-14.917c-11.447-21.050-15.697-58.018-15.697-76.408c0-66.889, 50.949-122.083, 116.122-128.777L 242.401,70.2 
	c-52.388-1.594-92.806-11.767-92.806-24.070c0-13.414, 47.973-24.288, 107.131-24.288c 59.124,0, 107.066,10.874, 107.066,24.288
	C 363.793,58.434, 323.371,68.606, 271.017,70.2z"  />
<glyph unicode="&#xe00a;" d="M 422.952,108.695L 307.064,224.582L 422.948,340.469L 371.226,392.192L 255.34,276.307L 139.457,392.188L 87.731,340.469L 203.616,224.584L 87.731,108.695L 139.457,56.974L 255.344,172.86L 371.228,56.978 z"  />
<glyph unicode="&#xe00b;" d="M 229.882,220.531c-18.919,11.596-37.020,21.375-59.731,23.158c-27.751,2.188-55.429-6.158-80.847-16.53L 52.779,99.361
	c 48.963,18.699, 94.119,20.855, 139.427-7.877l 37.692,129.039C 229.898,220.523, 229.89,220.531, 229.882,220.531 M 181.049,270.079
	c 23.059-2.835, 41.371-12.591, 56.304-21.974c 12.356,42.651, 24.59,85.335, 37.052,127.946c-17.793,11.319-35.975,21.131-57.284,23.254
	c-28.043,3.347-57.26-5.064-82.912-15.557C 121.707,341, 109.463,298.17, 97.099,255.381
	C 123.578,265.769, 152.391,273.596, 181.049,270.079 M 330.548,179.818c-34.347,0-57.722,12.104-77.752,25.426
	c-0.097-0.113-0.251-0.211-0.364-0.293l-37.109-128.439c 47.042-31.178, 100.299-30.887, 151.458-9.285l 35.983,125.539l-0.323-0.082
	C 375.313,183.609, 351.532,179.818, 330.548,179.818 M 448.455,351.443c-0.098,0.065-0.179,0.146-0.26,0.227
	c-51.67-20.977-102.577-23.173-150.544,8.703c-2.195-7.568-4.214-13.289-5.492-17.728c-4.239-14.666-8.476-29.332-12.715-43.997
	c-6.497-22.525-13.004-45.050-19.51-67.566c 46.889-30.312, 100.105-31.932, 150.933-9.092l 37.668,129.381L 448.455,351.443"  />
<glyph unicode="&#xe00c;" d="M 49.525,187.208L 218.908,187.208L 218.908,73.265L 49.525,73.265zM 49.525,285.159L 49.525,210.886L 78.631,210.886L 78.631,256.050L 335.41,256.050L 335.41,102.368L 242.586,102.368L 242.586,73.265L 364.516,73.265L 364.516,102.368L 364.516,285.159L 78.631,285.159 	zM 49.525,374.735L 49.525,312.88L 78.631,312.88L 78.631,345.628L 433.369,345.628L 433.369,102.368L 392.238,102.368L 392.238,73.265L 462.477,73.265L 462.477,374.735 	z"  />
<glyph unicode="&#xe00d;" d="M 366.118,241.708L 463.075,338.667L 418.829,382.916L 321.867,285.958L 282.296,325.533L 282.296,201.395L 406.431,201.395 	zM 426.79,101.374L 85.21,101.374L 85.21,346.628L 266.407,346.628L 266.407,382.916L 48.925,382.916L 48.925,65.084L 463.075,65.084L 463.075,175.637L 426.79,175.637 	z"  />
<glyph unicode="&#xe00e;" d="M 162.073,145.271l 29.878-29.873c 16.092,17.093, 38.877,27.82, 64.209,27.82c 25.336,0, 48.119-10.728, 64.221-27.82
		l 29.873,29.873c-23.778,24.761-57.131,40.255-94.094,40.255C 219.203,185.526, 185.857,170.032, 162.073,145.271z M 256.16,97.216
		c-12.612,0-23.822-5.661-31.58-14.446l 31.586-31.586l 31.584,31.586C 279.986,91.555, 268.777,97.216, 256.16,97.216z
		 M 476.211,274.958c-121.531,121.532-318.568,121.524-440.1,0c-0.625-0.625-1.195-1.283-1.812-1.906l 30.662-30.663
		c 48.605,49.566, 116.294,80.354, 191.205,80.354c 74.906,0, 142.592-30.787, 191.203-80.354l 30.66,30.663
		C 477.408,273.675, 476.838,274.333, 476.211,274.958z M 256.166,276.743c-59.254,0-114.965-23.073-156.863-64.971
		c-0.622-0.623-1.197-1.279-1.818-1.909l 31.976-31.973c 32.094,33.061, 76.987,53.637, 126.7,53.637
		c 49.72,0, 94.608-20.576, 126.711-53.637l 31.967,31.969c-0.617,0.634-1.195,1.29-1.819,1.913
		C 371.121,253.67, 315.417,276.743, 256.166,276.743z"  />
<glyph unicode="&#xe00f;" d="M 322.193,249.642L 192.709,249.642 l0,47.99 l-89.144-73.576l 89.144-73.565L 192.709,198.48 l 129.484,0 l0-47.989 l 89.143,73.565l-89.143,73.576L 322.193,249.642 
	z M 37.735,128.922l 51.147,0 L 88.882,319.184 L 37.735,319.184 L 37.735,128.922 z M 422.699,319.184l0-190.262 l 51.146,0 L 473.845,319.184 L 422.699,319.184 z"  />
<glyph unicode="&#xe010;" d="M 418.059,69.125l-38.232,206.578c-1.35,7.275-7.693,12.557-15.094,12.557l-60.451,0 
	c 10.457,11.557, 16.834,26.867, 16.834,43.645c0,35.902-29.209,65.115-65.117,65.115c-35.902,0-65.115-29.213-65.115-65.115
	c0-16.777, 6.381-32.088, 16.838-43.645l-60.457,0 c-7.398,0-13.744-5.281-15.092-12.557l-38.23-206.578
	c-0.83-4.484, 0.375-9.105, 3.293-12.611c 2.916-3.506, 7.238-5.533, 11.799-5.533l 293.932,0 c 4.561,0, 8.885,2.027, 11.801,5.533
	S 418.889,64.641, 418.059,69.125z M 255.998,368.158c 20.025,0, 36.258-16.232, 36.258-36.254c0-20.027-16.232-36.26-36.258-36.26
	c-20.023,0-36.254,16.232-36.254,36.26C 219.744,351.926, 235.975,368.158, 255.998,368.158z M 223.418,104.588l-31.246,44.273
	l-7.84-7.947l0-36.326 l-26.199,0 L 158.133,213.746 l 26.199,0 l0-39.406 l 36.953,39.406l 34.926,0 l-45.449-45.553l 46.609-63.605L 223.418,104.588 z M 359.311,104.588
	l-18.82,0 l-1.715,10.172c-3.086-3.236-5.92-5.621-8.594-7.234c-6.1-3.732-13.664-5.627-22.473-5.627
	c-14.461,0-26.492,5.092-35.746,15.135c-9.574,10.008-14.439,23.846-14.439,41.109c0,17.428, 4.902,31.637, 14.574,42.23
	c 9.725,10.66, 22.732,16.064, 38.656,16.064c 13.779,0, 25.051-3.582, 33.504-10.646c 8.494-7.102, 13.434-16.092, 14.682-26.723
	l 0.311-2.645l-26.008,0 l-0.426,1.832c-1.488,6.422-5.008,10.779-10.764,13.316c-3.26,1.416-6.971,2.139-11.014,2.139
	c-7.752,0-13.939-2.842-18.92-8.682c-5.008-5.869-7.547-14.977-7.547-27.061c0-12.068, 2.693-20.637, 8.010-25.473
	c 5.457-4.961, 11.469-7.373, 18.385-7.373c 6.777,0, 12.148,1.863, 16.41,5.693c 3.656,3.285, 6.068,7.354, 7.328,12.381l-23.629,0 l0,22.164 
	l 48.234,0 L 359.31,104.588 z"  />
<glyph unicode="&#xe011;" d="M 453.475,151.006L 57.719,151.006 c-14.093,0-20.271-10.201-13.734-22.697l 29.463-56.295c 6.576-12.474, 23.449-22.694, 37.575-22.694
	l 289.15,0 c 14.093,0, 31,10.221, 37.538,22.694l 29.5,56.295C 473.75,140.805, 467.57,151.006, 453.475,151.006z M 119.329,74.616
	c-14.095,0-25.539,11.445-25.539,25.539c0,14.112, 11.444,25.539, 25.539,25.539c 14.129,0, 25.54-11.427, 25.54-25.539
	C 144.869,86.062, 133.458,74.616, 119.329,74.616z M 211.385,74.616c-14.094,0-25.509,11.445-25.509,25.539
	c0,14.112, 11.415,25.539, 25.509,25.539c 14.127,0, 25.539-11.427, 25.539-25.539C 236.924,86.062, 225.512,74.616, 211.385,74.616z
	 M 303.473,75.725c-13.506,0-24.428,10.959-24.428,24.431c0,13.504, 10.922,24.44, 24.428,24.44c 13.505,0, 24.43-10.937, 24.43-24.44
	C 327.902,86.684, 316.978,75.725, 303.473,75.725z M 395.529,75.725c-13.474,0-24.432,10.959-24.432,24.431
	c0,13.504, 10.958,24.44, 24.432,24.44c 13.504,0, 24.46-10.937, 24.46-24.44C 419.989,86.684, 409.033,75.725, 395.529,75.725z
	 M 117.826,315.74l 60.367-35.057c0-0.26-0.032-0.523-0.032-0.802l0-42.625 l-49.447,0 l-32.831-56.755l 326.428,0 l-32.865,56.755l-48.398,0 
	l0,42.625 c0,13.523-10.987,24.476-24.495,24.476L 202.656,304.357 c-0.493,0-0.919-0.031-1.375-0.046l-67.367,39.11l 7.719,13.277L 70.146,398.197
	l-31.591-54.352l 71.487-41.5L 117.826,315.74z"  />
<glyph unicode="&#xe012;" d="M 306.997,355.609c 8.992,0, 16.277,7.286, 16.277,16.276L 323.274,422.816 c 0.002,8.989-7.285,16.276-16.277,16.276
	c-8.983,0-16.271-7.287-16.273-16.276l0-50.932 C 290.724,362.895, 298.014,355.606, 306.997,355.609z M 387.749,332.365l 36.015,36.017
	c 6.356,6.357, 6.353,16.662,0,23.015c-6.357,6.356-16.662,6.356-23.019,0l-36.013-36.014c-6.356-6.356-6.358-16.661,0-23.018
	C 371.086,326.009, 381.393,326.012, 387.749,332.365z M 226.683,329.813c 6.354-6.353, 16.663-6.353, 23.018,0
	c 6.353,6.356, 6.353,16.662,0,23.018l-36.018,36.018c-6.355,6.353-16.661,6.353-23.015,0c-6.359-6.356-6.359-16.662,0-23.018
	L 226.683,329.813z M 386.183,216.35c-6.356,6.357-16.663,6.357-23.020,0c-6.354-6.355-6.354-16.661,0-23.018l 36.015-36.014
	c 6.356-6.356, 16.663-6.356, 23.018,0c 6.358,6.356, 6.358,16.658,0,23.015L 386.183,216.35z M 316.164,347.411L 37.625,68.875
	l 58.761-58.76l 278.541,278.533L 316.164,347.411z M 250.969,248.239l 67.606,67.608l 24.787-24.788l-67.606-67.608L 250.969,248.239z
	 M 456.169,289.923l-50.934,0 c-8.99,0-16.275-7.289-16.275-16.275c-0.004-8.985, 7.285-16.275, 16.275-16.275l 50.934,0 
	c 8.988,0, 16.273,7.29, 16.273,16.275C 472.442,282.638, 465.157,289.923, 456.169,289.923z"  />
<glyph unicode="&#xe013;" d="M 445.271,339.129c0,28.207-22.925,51.165-51.113,51.165L 65.932,390.294 l0-39.277 l 3.463,0 c 6.182,0, 11.218-5, 11.218-11.2
	c0-6.18-5.036-11.201-11.218-11.201l-3.463,0 l0-211.153 l 3.463,0 c 6.182,0, 11.218-5.006, 11.218-11.201c0-6.164-5.036-11.201-11.218-11.201
	l-3.463,0 l0-37.247 l 328.225,0 c 28.188,0, 51.113,22.94, 51.113,51.132l0,60.549 l-74.003,0 c-16.221,0-29.432,13.174-29.432,29.446l0,50.212 
	c0,16.27, 13.211,29.446, 29.432,29.446l 74.003,0 L 445.27,339.129 z M 363.221,117.463l 19.752,0 l0,20.553 c0,6.181, 5.004,11.183, 11.185,11.183
	c 6.182,0, 11.187-5.002, 11.187-11.183l0-29.25 c0-0.654-0.035-1.179-0.165-1.605c-0.817-6.803-6.508-12.1-13.474-12.1l-28.484,0 
	c-6.179,0-11.183,5.037-11.183,11.201C 352.038,112.457, 357.042,117.463, 363.221,117.463z M 133.199,95.061l-22.402,0 
	c-6.182,0-11.183,5.037-11.183,11.201c0,6.195, 5.001,11.201, 11.183,11.201l 22.402,0 c 6.181,0, 11.215-5.006, 11.215-11.201
	C 144.414,100.098, 139.38,95.061, 133.199,95.061z M 133.199,328.616l-22.402,0 c-6.182,0-11.183,5.021-11.183,11.201
	c0,6.199, 5.001,11.2, 11.183,11.2l 22.402,0 c 6.181,0, 11.215-5, 11.215-11.2C 144.414,333.638, 139.38,328.616, 133.199,328.616z
	 M 196.313,95.061L 173.91,95.061 c-6.146,0-11.182,5.037-11.182,11.201c0,6.195, 5.035,11.201, 11.182,11.201l 22.403,0 
	c 6.178,0, 11.183-5.006, 11.183-11.201C 207.496,100.098, 202.492,95.061, 196.313,95.061z M 196.313,328.616L 173.91,328.616 
	c-6.146,0-11.182,5.021-11.182,11.201c0,6.199, 5.035,11.2, 11.182,11.2l 22.403,0 c 6.178,0, 11.183-5, 11.183-11.2
	C 207.496,333.638, 202.492,328.616, 196.313,328.616z M 259.394,95.061l-22.37,0 c-6.177,0-11.216,5.037-11.216,11.201
	c0,6.195, 5.039,11.201, 11.216,11.201l 22.37,0 c 6.213,0, 11.216-5.006, 11.216-11.201C 270.609,100.098, 265.606,95.061, 259.394,95.061z
	 M 259.394,328.616l-22.37,0 c-6.177,0-11.216,5.021-11.216,11.201c0,6.199, 5.039,11.2, 11.216,11.2l 22.37,0 c 6.213,0, 11.216-5, 11.216-11.2
	C 270.609,333.638, 265.606,328.616, 259.394,328.616z M 322.508,95.061l-22.399,0 c-6.183,0-11.185,5.037-11.185,11.201
	c0,6.195, 5.002,11.201, 11.185,11.201l 22.399,0 c 6.18,0, 11.217-5.006, 11.217-11.201C 333.725,100.098, 328.688,95.061, 322.508,95.061z
	 M 322.508,328.616l-22.399,0 c-6.183,0-11.185,5.021-11.185,11.201c0,6.199, 5.002,11.2, 11.185,11.2l 22.399,0 c 6.18,0, 11.217-5, 11.217-11.2
	C 333.725,333.638, 328.688,328.616, 322.508,328.616z M 405.344,308.083c0-6.185-5.005-11.216-11.187-11.216
	c-6.181,0-11.185,5.032-11.185,11.216l0,20.533 l-19.752,0 c-6.179,0-11.183,5.021-11.183,11.201c0,6.199, 5.004,11.2, 11.183,11.2l 28.484,0 
	c 6.966,0, 12.656-5.281, 13.474-12.065c 0.13-0.445, 0.165-0.967, 0.165-1.602L 405.343,308.083 z M 368.681,224.056
	c0-14.062, 11.417-25.459, 25.509-25.459c 14.029,0, 25.444,11.397, 25.444,25.459c0,14.042-11.415,25.455-25.444,25.455
	C 380.098,249.511, 368.681,238.099, 368.681,224.056z"  />
<glyph unicode="&#xe014;" d="M 401.938,326.528L 346.18,326.528 L 346.18,405.88 c0,14.128-11.445,25.572-25.539,25.572c-14.128,0-25.59-11.444-25.59-25.572l0-79.352 l-88.393,0 
	L 206.658,405.88 c0,14.128-11.428,25.572-25.571,25.572c-14.112,0-25.557-11.444-25.557-25.572l0-79.352 l-46.403,0 l0-50.768 l 66.122-120.439l 160.565,0 
	l 66.124,120.439L 401.938,326.528 z M 187.594,73.904l 42.364,0 l0-57.001 l 51.147,0 l0,57.001 l 42.38,0 l0,51.14 L 187.594,125.044 L 187.594,73.904 z"  />
<glyph unicode="&#xe015;" d="M 455.184,392.56L 56.816,392.56 c-11.040,0-20-8.96-20-20l0-297.12 c0-11.040, 8.96-20, 20-20l 398.368,0 c 11.040,0, 20,8.96, 20,20
		L 475.184,372.56 C 475.184,383.616, 466.24,392.56, 455.184,392.56z M 435.184,95.44L 76.816,95.44 L 76.816,352.56 l 54.128,0 l0-38.992 l 64,0 L 194.944,352.56 l 122.128,0 l0-38.992 l 64,0 L 381.072,352.56 l 54.128,0 L 435.2,95.44 z
		M 152.304,212.848c 7.584-13.952, 17.2-16.864, 23.92-16.864c 6.704,0, 16.32,2.912, 23.968,16.816l 0.464,0.848
		c 3.792,6.88, 6.528,11.856, 6.528,23.104c0,9.952,0,36.384-30.944,36.384c-30.784,0-30.784-25.504-30.784-36.384
		c0-11.28, 2.704-16.256, 6.464-23.152L 152.304,212.848zM 234.896,178.384l-30.768,13.776c-1.312,0.592-2.784,0.624-4.096,0.048l-15.632-6.576l-16.224,0 L 152.544,192.16
		c-1.312,0.56-2.784,0.528-4.064-0.048l-30.8-13.744c-1.856-0.832-3.040-2.672-3.040-4.688l0-18.768 c0-2.832, 2.304-5.136, 5.136-5.136
		l 113.008,0 c 2.832,0, 5.136,2.304, 5.136,5.136l0,18.8 C 237.936,175.728, 236.736,177.568, 234.896,178.384zM 283.744,264.032L 397.376,264.032L 397.376,232.576L 283.744,232.576zM 283.744,191.52L 397.376,191.52L 397.376,160.064L 283.744,160.064z"  />
<glyph unicode="&#xe016;" d="M 254.529,158.774c 38.885,0, 70.41,31.521, 70.41,70.41L 324.939,362.917 c0,38.886-31.525,70.41-70.41,70.41
	c-38.888,0-70.409-31.524-70.409-70.41l0-133.733 C 184.121,190.296, 215.642,158.774, 254.529,158.774z M 350.33,275.973l0-46.968 
	c-0.012-26.512-10.698-50.349-28.057-67.743c-17.395-17.363-41.233-28.051-67.744-28.061c-26.512,0.010-50.354,10.697-67.745,28.061
	c-17.366,17.395-28.049,41.231-28.058,67.743l0,46.968 l-35.054,0 l-0.004-46.968c 0.014-66.331, 49.349-121.077, 113.332-129.651l0-48.715 
	l-57.424,0 l0-35.057 l 149.899,0 l0,35.057 l-57.419,0 l0,48.715 c 63.977,8.574, 113.318,63.32, 113.33,129.651l0,46.968 L 350.33,275.973 z"  />
<glyph unicode="&#xe017;" d="M 344.551,275.342l0-101.827 l 124.494-80.393L 469.045,355.732 L 344.551,275.342z M 299.064,340.054L 60.246,340.054 
	c-11.292,0-20.447-9.156-20.447-20.447l0-190.358 c0-11.293, 9.155-20.447, 20.447-20.447l 238.818,0 c 11.293,0, 20.449,9.154, 20.449,20.447
	L 319.513,319.606 C 319.514,330.898, 310.357,340.054, 299.064,340.054z"  />
<glyph unicode="&#xe018;" d="M 36.742,359.937l0-272.518 l 93.897,0 l0,32.553 l-27.543,0 L 103.096,145.010 l 70.108,0 l0-25.038 l-27.541,0 l0-32.553 l 219.089,0 l0,32.553 l-27.543,0 L 337.209,145.010 
	l 70.109,0 l0-25.038 l-27.543,0 l0-32.553 l 95.192,0 L 474.967,359.937 L 36.742,359.937 z M 245.817,288.985l 186.539,0 l0-25.038 L 245.817,263.947 L 245.817,288.985 z M 195.832,207.949
	c-2.703,3.315-7.695,4.218-12.017,6.044c-5.773,2.436-12.173,5.253-17.932,7.616c-1.643,0.449-3.285,0.895-4.929,1.342
	c-1.963,1.352-3.878,5.84-4.93,8.071c-1.045,0.148-2.086,0.3-3.135,0.443c 0.161,3.449, 2.295,3.642, 3.135,6.278
	c 0.742,2.326, 0.078,5.345, 1.251,7.496c 0.814,1.496, 2.65,1.506, 3.567,2.789c 0.834,1.162, 1.389,3.193, 1.644,4.614
	c 0.479,2.605, 0.891,6.17-0.346,8.748c-0.714,1.483-1.158,1.629-1.356,3.427c-0.24,2.182, 0.643,9.301, 0.68,10.839
	c 0.088,3.991-0.004,7.612-0.97,11.499c0,0-1.175,3.52-3.016,4.586l-3.668,0.631l-2.264,2.096
	c-9.135,5.622-18.921,1.683-24.165-0.444c-7.559-2.45-12.334-13.137-8.997-28.942c 0.567-2.7-1.481-3.91-1.344-5.382
	c 0.291-3.218, 0.354-10.962, 3.396-12.873c 0.285-0.175, 2.443-0.72, 2.43-0.57c 0.297-3.131, 0.596-6.276, 0.894-9.409
	c 0.765-2.088, 2.586-2.312, 3.112-5.258l-2.333-0.567c-1.045-2.231-2.967-6.72-4.927-8.071c-1.646-0.447-3.29-0.893-4.931-1.342
	c-5.757-2.363-12.158-5.181-17.922-7.616c-3.906-1.643-8.364-2.515-11.189-5.099L 85.57,311.518 l 110.261,0 L 195.831,207.949 z M 432.358,216.367L 245.816,216.367 
	l0,25.044 l 186.542,0 L 432.358,216.367 z"  />
<glyph unicode="&#xe019;" d="M 305.692,211.381l0-58.607 l-99.905,0 l0,58.607 L 37.408,211.381 l0-173.058 l 436.666,0 L 474.074,211.381 L 305.692,211.381 z M 205.787,276.979l 99.905,0 l0-39.939 l 168.356,0 
	l0,78.883 c0,11.743-9.525,21.27-21.273,21.27l-78.438,0 L 374.337,364.56 c-0.010,24.944-20.207,45.143-45.151,45.154L 182.010,409.714 
	c-24.938-0.012-45.139-20.21-45.152-45.154l0-27.368 L 58.404,337.192 c-11.747,0-21.273-9.526-21.273-21.27l0-78.883 l 168.656,0 L 205.787,276.979 z
	 M 167.638,364.56c 0.014,7.931, 6.44,14.36, 14.373,14.374l 147.175,0 c 7.937-0.014, 14.358-6.443, 14.378-14.374l0-27.368 L 167.638,337.192 L 167.638,364.56 z
	 M 280.516,177.875l0,74.13 l-49.829,0 l0-74.13 L 280.516,177.875 z"  />
<glyph unicode="&#xe01a;" d="M 310.761,342.579c 2.649-10.664, 2.913-20.567, 2.669-31.515c-0.099-4.223-2.521-23.736-1.865-29.717
		c 0.541-4.936, 1.774-5.328, 3.72-9.395c 3.39-7.080, 2.255-16.842, 0.956-23.979c-0.712-3.906-2.216-9.468-4.502-12.653
		c-2.521-3.518-7.562-3.541-9.793-7.641c-3.213-5.899-1.398-14.186-3.424-20.56c-2.302-7.23-8.16-7.737-8.604-17.195
		c 2.875-0.412, 5.738-0.819, 8.604-1.23c 2.875-6.112, 8.139-18.406, 13.515-22.107c 4.504-1.231, 9.008-2.46, 13.514-3.686
		c 15.781-6.475, 33.32-14.22, 49.139-20.889c 14.403-6.074, 31.645-8.24, 36.853-23.339c0-10.253, 0.968-34.471, 0.701-47.907L 98.489,70.766 
		c-0.262,13.437, 0.702,37.654, 0.702,47.907c 5.209,15.099, 22.451,17.265, 36.854,23.339c 15.818,6.669, 33.357,14.414, 49.137,20.889
		c 4.506,1.226, 9.011,2.454, 13.514,3.686c 5.379,3.701, 10.644,15.995, 13.519,22.107l 6.396,1.557
		c-1.451,8.072-6.451,8.697-8.536,14.415c-0.815,8.597-1.636,17.201-2.452,25.802c 0.035-0.408-5.882,1.072-6.657,1.558
		c-8.345,5.233-8.515,26.461-9.317,35.289c-0.366,4.038, 5.244,7.349, 3.686,14.745c-9.142,43.33, 3.954,72.625, 24.665,79.349
		c 14.371,5.826, 41.207,16.63, 66.239,1.228l 6.216-5.76l 10.050-1.729C 307.542,352.239, 310.761,342.579, 310.761,342.579zM 179.18,266.012c-0.494,5.428, 1.757,9.537, 3.102,11.999c 0.258,0.477, 0.599,1.097, 0.766,1.472
	c-1.146,5.464-1.957,10.697-2.49,15.715l-6.959,1.193l-4.427,4.104c-17.843,10.977-36.974,3.276-47.214-0.87
	c-14.765-4.797-24.1-25.678-17.58-56.56c 1.108-5.274-2.892-7.633-2.628-10.513c 0.571-6.292, 0.688-21.426, 6.64-25.153
	c 0.551-0.346, 4.77-1.404, 4.746-1.116c 0.583-6.127, 1.165-12.258, 1.747-18.385c 1.485-4.076, 5.052-4.521, 6.082-10.272l-4.56-1.114
	c-2.048-4.357-5.799-13.122-9.631-15.76c-3.209-0.874-6.424-1.751-9.631-2.627c-11.249-4.611-23.751-10.134-35.028-14.888
	c-10.264-4.329-22.555-5.875-26.268-16.633c0-7.308-0.69-24.576-0.498-34.15L 86.15,92.454 c 0.065,3.128, 0.138,6.257, 0.213,9.276
	c 0.158,6.631, 0.309,12.892, 0.309,16.776l0,2.097 l 0.686,1.984c 6.035,17.492, 21.939,23.002, 34.72,27.426
	c 3.229,1.116, 6.278,2.172, 9.104,3.367c 6.203,2.612, 12.673,5.396, 19.196,8.201c 9.602,4.128, 19.502,8.377, 28.808,12.213
	c-0.465,1.008-0.893,1.936-1.26,2.717c-2.043,0.292-4.083,0.584-6.131,0.876c 0.316,6.743, 4.492,7.106, 6.131,12.258
	c 1.445,4.548, 0.15,10.449, 2.442,14.653c 1.588,2.922, 5.183,2.943, 6.978,5.445c 1.627,2.273, 2.704,6.24, 3.21,9.021
	c 0.272,1.495, 0.526,3.158, 0.697,4.877c-9.748,8.984-10.966,26.442-11.777,38.37C 179.373,263.517, 179.281,264.871, 179.18,266.012z
	 M 474.654,126.604c-3.71,10.758-16.003,12.304-26.271,16.633c-11.273,4.754-23.774,10.276-35.024,14.888
	c-3.209,0.876-6.422,1.753-9.631,2.627c-3.834,2.638-7.582,11.402-9.636,15.76c-2.040,0.292-4.084,0.584-6.129,0.876
	c 0.316,6.743, 4.489,7.106, 6.129,12.258c 1.445,4.548, 0.152,10.449, 2.443,14.653c 1.587,2.922, 5.183,2.943, 6.979,5.445
	c 1.63,2.273, 2.704,6.24, 3.211,9.021c 0.927,5.086, 1.733,12.047-0.684,17.093c-1.386,2.898-2.264,3.177-2.649,6.691
	c-0.471,4.267, 1.256,18.175, 1.328,21.185c 0.176,7.804-0.014,14.862-1.9,22.463c0,0-2.296,6.887-5.888,8.963l-7.166,1.23
	l-4.429,4.104c-17.843,10.977-36.974,3.276-47.214-0.87c-5.7-1.85-10.574-6.125-14.056-12.418c-0.113-2.086-0.152-3.793-0.061-4.668
	c 0.049-0.457, 0.099-0.726, 0.124-0.858c 0.12-0.228, 0.26-0.451, 0.402-0.694c 0.521-0.893, 1.238-2.113, 2.042-3.799
	c 5.022-10.492, 3.538-23.072, 1.981-31.629c-0.77-4.221-2.655-12.138-6.646-17.706c-1.044-1.453-2.195-2.626-3.354-3.603
	c 0.634-6.669, 1.994-14.343, 5.998-16.851c 0.553-0.346, 4.771-1.404, 4.747-1.116c 0.582-6.127, 1.166-12.258, 1.749-18.385
	c 1.483-4.076, 5.049-4.521, 6.082-10.272l-4.56-1.114c-0.357-0.76-0.769-1.659-1.224-2.633c 9.354-3.854, 19.317-8.128, 28.973-12.283
	c 6.537-2.811, 13.017-5.597, 19.229-8.215c 2.824-1.195, 5.875-2.251, 9.104-3.367c 12.781-4.424, 28.688-9.934, 34.72-27.426l 0.686-1.984
	l0-2.097 c0-3.885, 0.151-10.146, 0.312-16.776c 0.070-3.020, 0.146-6.148, 0.214-9.276l 50.566,0 
	C 475.344,102.028, 474.654,119.297, 474.654,126.604z"  />
<glyph unicode="&#xe01b;" d="M 306.818,144.449c-15.453,6.512-32.588,14.080-48.007,20.406c-4.398,1.196-8.8,2.396-13.202,3.6
	c-5.251,3.611-10.395,15.626-13.204,21.602c-2.795,0.396-5.598,0.795-8.402,1.193c 0.434,9.242, 6.158,9.739, 8.402,16.8
	c 1.981,6.229, 0.208,14.323, 3.348,20.089c 2.179,4.002, 7.103,4.029, 9.565,7.461c 2.232,3.117, 3.701,8.549, 4.398,12.361
	c 1.269,6.971, 2.376,16.512-0.935,23.43c-1.903,3.97-3.104,4.353-3.632,9.176c-0.641,5.845, 1.723,24.907, 1.821,29.031
	c 0.241,10.694-0.017,20.369-2.606,30.789c0,0-3.145,9.436-8.070,12.281l-9.817,1.687l-6.071,5.626
	c-24.454,15.049-50.673,4.493-64.712-1.197c-20.235-6.568-33.030-35.189-24.098-77.518c 1.525-7.227-3.959-10.463-3.6-14.407
	c 0.785-8.628, 0.947-29.365, 9.103-34.472c 0.756-0.479, 6.538-1.925, 6.504-1.528c 0.798-8.396, 1.597-16.806, 2.395-25.204
	c 2.038-5.586, 6.919-6.197, 8.338-14.083l-6.247-1.515c-2.811-5.976-7.953-17.99-13.208-21.602c-4.397-1.203-8.8-2.403-13.198-3.6
	c-15.418-6.326-32.555-13.895-48.005-20.406c-14.069-5.94-30.916-8.053-36.006-22.802c0-10.021-0.94-33.677-0.687-46.804l 306.521,0 
	c 0.256,13.127-0.686,36.783-0.686,46.804C 337.735,136.396, 320.887,138.509, 306.818,144.449z M 393.537,145.812
	c-11.013,4.641-23.227,10.036-34.215,14.543c-3.136,0.85-6.275,1.708-9.41,2.564c-3.744,2.576-7.408,11.139-9.41,15.396
	c-1.996,0.286-3.991,0.572-5.989,0.856c 0.308,6.592, 4.384,6.941, 5.989,11.974c 1.41,4.442, 0.146,10.204, 2.383,14.316
	c 1.554,2.856, 5.063,2.873, 6.816,5.319c 1.593,2.221, 2.645,6.098, 3.141,8.813c 0.904,4.966, 1.69,11.771-0.668,16.697
	c-1.356,2.833-2.212,3.106-2.589,6.54c-0.46,4.168, 1.228,17.756, 1.296,20.695c 0.172,7.625-0.009,14.521-1.855,21.944
	c0,0-2.24,6.729-5.754,8.754l-6.999,1.2l-4.328,4.011c-17.429,10.729-36.12,3.208-46.122-0.849
	c-14.424-4.684-23.545-25.086-17.178-55.255c 1.088-5.151-2.823-7.456-2.562-10.265c 0.557-6.154, 0.671-20.936, 6.484-24.576
	c 0.536-0.34, 4.66-1.373, 4.636-1.088c 0.567-5.984, 1.14-11.979, 1.708-17.965c 1.451-3.979, 4.932-4.418, 5.939-10.038l-4.449-1.086
	c-1.428-3.032-3.702-8.226-6.245-11.904c 5.534-2.349, 11.138-4.748, 16.646-7.12c 6.428-2.764, 12.804-5.506, 18.918-8.080
	c 2.908-1.232, 5.965-2.289, 9.198-3.41c 12.079-4.186, 25.772-8.925, 30.888-23.758l 0.4-1.163l0-1.232 c0-3.856, 0.15-10.017, 0.307-16.532
	c 0.070-2.904, 0.143-5.915, 0.207-8.92l 68.973,0 c 0.186,9.353-0.486,26.225-0.486,33.363C 415.578,140.068, 403.569,141.579, 393.537,145.812
	z M 473.146,139.048c-2.528,7.335-10.91,8.388-17.911,11.343c-7.685,3.24-16.209,7-23.882,10.151
	c-2.184,0.592-4.372,1.192-6.562,1.788c-2.612,1.799-5.169,7.773-6.567,10.742c-1.394,0.202-2.787,0.4-4.18,0.602
	c 0.215,4.594, 3.059,4.844, 4.18,8.354c 0.982,3.1, 0.102,7.124, 1.665,9.988c 1.083,1.996, 3.53,2.010, 4.757,3.72
	c 1.111,1.548, 1.846,4.247, 2.189,6.146c 0.631,3.472, 1.181,8.216-0.468,11.653c-0.944,1.977-1.542,2.168-1.805,4.564
	c-0.323,2.906, 0.858,12.392, 0.905,14.439c 0.121,5.322-0.008,10.135-1.297,15.321c0,0-1.564,4.689-4.014,6.101l-4.883,0.842
	l-3.021,2.799c-12.168,7.486-25.207,2.239-32.189-0.594c-10.064-3.27-16.431-17.503-11.984-38.559c 0.756-3.6-1.971-5.205-1.79-7.169
	c 0.386-4.29, 0.47-14.606, 4.523-17.147c 0.378-0.237, 3.254-0.956, 3.235-0.76c 0.396-4.176, 0.799-8.359, 1.196-12.536
	c 1.009-2.778, 3.438-3.081, 4.143-7.003l-3.106-0.762c-1.184-2.516-3.201-7.16-5.379-9.624c 3.961-1.681, 7.971-3.401, 11.914-5.097
	c 4.597-1.971, 9.155-3.935, 13.53-5.778c 2.011-0.847, 4.155-1.593, 6.425-2.378c 8.617-2.984, 19.345-6.697, 23.326-18.243l 0.4-1.165l0-1.229 
	c0-2.719, 0.104-7.074, 0.215-11.688c 0.019-0.691, 0.035-1.4, 0.053-2.105l 46.723,0 C 473.617,122.293, 473.146,134.062, 473.146,139.048z"  />
<glyph unicode="&#xe01c;" d="M 331.135,381.625c 3.677-14.798, 4.045-16.031, 3.702-31.225c-0.138-5.855-3.5-32.936-2.586-41.242
	c 0.751-6.851, 2.46-7.395, 5.162-13.041c 4.705-9.824, 3.13-23.376, 1.325-33.282c-0.988-5.42-3.076-13.136-6.248-17.561
	c-3.497-4.876-10.498-4.913-13.592-10.602c-4.459-8.195-1.941-19.692-4.752-28.54c-3.193-10.033-11.325-10.738-11.938-23.867
	c 3.986-0.562, 7.962-1.134, 11.938-1.703c 3.99-8.484, 11.297-25.552, 18.759-30.688c 6.25-1.705, 12.505-3.411, 18.752-5.113
	c 21.907-8.982, 46.251-19.732, 68.204-28.987c 19.991-8.434, 43.927-11.439, 51.151-32.396c0-14.229, 1.343-47.849, 0.976-66.497L 36.514,16.881 
	c-0.367,18.648, 0.974,52.268, 0.974,66.497c 7.226,20.957, 31.16,23.963, 51.151,32.396c 21.953,9.255, 46.297,20.005, 68.201,28.987
	c 6.25,1.702, 12.506,3.408, 18.754,5.113c 7.461,5.136, 14.77,22.203, 18.76,30.688l 8.877,2.158c-2.017,11.206-8.954,12.078-11.845,20.010
	c-1.134,11.932-2.269,23.871-3.408,35.806c 0.055-0.563-8.163,1.497-9.238,2.171c-11.58,7.256-11.816,36.723-12.931,48.978
	c-0.508,5.603, 7.283,10.193, 5.118,20.465c-12.69,60.138, 5.486,88.282, 34.229,97.614c 19.95,8.083, 57.198,23.074, 91.941,1.703
	l 8.621-7.991l 13.952-2.405C 326.67,395.030, 331.135,381.625, 331.135,381.625z"  />
<glyph unicode="&#xe01d;" d="M 178.432,318.285c 3.133,0.197, 6.268,0.369, 9.405,0.53c 3.166,0.163, 6.334,0.31, 9.498,0.435
		c 0.949,0.040, 1.895,0.098, 2.84,0.159c 2.191,0.135, 4.479,0.275, 6.834,0.191c 0.574-0.020, 1.154-0.027, 1.734-0.027l 3.757,0.027
		c 0.002,0, 0.006,0, 0.008,0c 0.932,0, 1.85-0.013, 2.766-0.056c 2.615-0.121, 5.396-0.398, 8.752-0.874
		c 4.492-0.636, 8.928-1.472, 13.219-2.282c 1.551-0.292, 2.982-0.564, 4.416-0.824l 1.219-0.226c 3.82-0.709, 7.766-1.441, 11.383-1.441
		l 0.693,0.008c 4.002,0.105, 8.352,0.929, 12.559,1.728l 4.178,0.788c 4.953,0.935, 10.031,1.894, 15.18,2.532
		c 5.1,0.634, 9.945,0.686, 15.303,0.686l 1.932-0.001c 2.023,0, 3.947-0.134, 5.802-0.264c 1.056-0.073, 2.1-0.148, 3.146-0.192
		c 2.754-0.113, 5.514-0.243, 8.271-0.387c 2.816-0.144, 5.633-0.3, 8.441-0.476c 0.543,10.772, 2.342,26.122, 2.442,30.262
		c 0.324,14.369-0.021,15.532-3.5,29.527c0,0-4.223,12.683-10.842,16.501l-13.195,2.271l-8.152,7.557
		c-32.857,20.215-68.080,6.035-86.947-1.61c-25.94-8.42-42.758-33.062-33.818-84.708L 178.432,318.285zM 460.991,96.058c-6.834,19.818-29.468,22.661-48.374,30.635c-20.761,8.756-43.783,18.92-64.498,27.416
		c-5.912,1.61-11.826,3.223-17.737,4.837c-7.058,4.857-13.967,20.997-17.74,29.021c-3.762,0.537-7.52,1.076-11.291,1.609
		c 0.584,12.418, 8.27,13.084, 11.291,22.573c 2.658,8.367, 0.277,19.241, 4.494,26.987c 2.927,5.38, 9.546,5.416, 12.854,10.027
		c 3.002,4.186, 4.976,11.484, 5.91,16.608c 1.692,9.293, 3.164,21.98-1.158,31.252l-4.529,0 c-0.244-0.402-0.68-1.444-1.377-4.118
		l-0.256-0.964c-1.543-11.029-6.34-20.264-13.512-26.014c-6.084-4.872-13.924-7.447-22.67-7.447c-1.912,0-3.851,0.128-5.761,0.383
		c-6.237,0.827-12.092,3.042-16.934,6.407c-2.272,1.58-4.472,3.197-6.459,5.595c-1.619,1.953-3.018,4.182-4.398,7.009
		c-0.816,1.668-1.504,3.354-2.114,4.841l-2.171,5.544c-0.088,0.229-0.248,0.637-0.416,0.993c-0.070-0.183-0.145-0.409-0.211-0.688
		l-2.577-7.612c-1.64-3.955-3.567-7.966-6.944-11.481c-4.112-4.288-9.559-7.51-15.752-9.32c-3.86-1.129-7.875-1.703-11.932-1.703
		c-6.848,0-13.316,1.658-18.709,4.792c-7.98,4.642-13.62,12.627-16.299,23.094c-0.375,1.458-0.783,2.908-1.19,4.362l-0.992,3.617
		c-0.41,1.545-0.758,2.863-1.274,3.613c-0.005,0.007-0.011,0.016-0.016,0.022l-3.521,0.033c-1.324-2.434-2.574-4.54-2.367-6.823
		c 1.054-11.59, 1.277-39.454, 12.229-46.317c 1.018-0.637, 8.787-2.585, 8.738-2.053c 1.076-11.285, 2.15-22.58, 3.22-33.863
		c 2.734-7.501, 9.297-8.325, 11.204-18.92l-8.395-2.040c-3.774-8.024-10.684-24.164-17.741-29.021
		c-5.91-1.614-11.826-3.227-17.738-4.837c-20.711-8.496-43.736-18.66-64.497-27.416c-18.906-7.974-41.539-10.817-48.375-30.635
		c0-13.458-1.268-45.249-0.92-62.883l 411.822,0 C 462.258,50.809, 460.991,82.6, 460.991,96.058zM 193.311,288.073c 3.068-10.883, 10.52-17.841, 23.498-17.841c 12.982,0, 23.502,7.987, 23.502,17.841
		c0,9.852, 3.17,17.089-23.502,18.992C 204.629,307.933, 186.512,312.17, 193.311,288.073zM 292.161,307.064c-26.672-1.903-23.502-9.14-23.502-18.992c0-9.854, 10.523-17.841, 23.502-17.841
		c 12.977,0, 20.432,6.958, 23.5,17.841C 322.459,312.17, 304.338,307.933, 292.161,307.064z"  />
<glyph unicode="&#xe01e;" d="M 338.739,141.797c-28.189,8.81-38.981,29.701-42.15,50.45c 3.071,3.513, 6.081,7.257, 8.991,11.134
			c 18.477-5.912, 40.648-7.639, 59.615,6.115c-26.127,26.137-5.135,58.186-24.004,115.935c-16.054,49.087-81.852,46.67-90.32,29.41
			c-34.859,12.352-61.186-4.172-70.898-56.17c-11.117-59.717, 10.466-66.029-15.665-92.159c 20.047-11.461, 38.456-8.652, 54.418-2.33
			c 3.104-4.223, 6.407-8.312, 9.775-12.124c-3.268-20.677-14.061-41.483-42.151-50.261c-21.388-6.695-46.436-13.295-61.25-28.096
			c-11.706-11.699-3.924-39.622-3.924-39.622l 282.738,0 c0,0, 7.749,27.923-3.927,39.622
			C 385.209,128.502, 360.126,135.102, 338.739,141.797z M 470.561,129.932c-11.674,11.691-31.492,16.898-48.398,22.19
			c-22.235,6.948-30.739,23.454-33.291,39.856c 2.421,2.766, 4.807,5.719, 7.098,8.776c 14.584-4.673, 32.111-6.031, 47.090,4.843
			c-20.637,20.634-4.055,45.918-18.969,91.531c-12.687,38.773-64.617,36.874-71.321,23.242c-0.815,0.296-1.668,0.582-2.484,0.809
			c 6.996-24.33, 7.325-44.175, 7.586-60.385c 0.327-20.422, 0.524-33.907, 12.624-46.003l 6.21-6.195l-7.094-5.143
			c-10.071-7.292-21.681-11.238-34.566-11.834c-1.733-11.006-6.213-22.044-15.794-30.17c 5.754-5.608, 12.98-9.777, 21.746-12.518
			c 2.060-0.643, 4.152-1.281, 6.278-1.938c 20.309-6.252, 43.331-13.335, 58.014-28c 5.429-5.404, 7.686-12.906, 8.403-20.349l 59.974,0 
			C 473.665,98.646, 479.781,120.695, 470.561,129.932z M 177.848,146.994c 2.093,0.656, 4.186,1.295, 6.279,1.938
			c 5.855,1.838, 11.053,4.341, 15.564,7.49c-14.848,8.23-21.123,21.91-23.25,35.557c 0.358,0.359, 0.687,0.766, 1.012,1.168
			c-5.756,1.462-11.38,3.732-16.874,6.864l-8.502,4.862l 6.932,6.92c 12.493,12.517, 12.067,18.15, 10.892,33.207
			c-0.913,12.031-2.224,28.5, 2.746,55.038c 1.931,10.474, 4.513,19.347, 7.523,26.881c-17.528,5.15-36.006,1.194-39.8-6.549
			c-27.535,9.738-48.331-3.301-55.985-44.359c-8.797-47.172, 8.273-52.142-12.394-72.785c 15.86-9.057, 30.38-6.833, 42.969-1.832
			c 2.488-3.352, 5.072-6.576, 7.72-9.59c-2.553-16.324-11.086-32.734-33.258-39.683c-16.907-5.292-36.693-10.499-48.366-22.19
			c-9.254-9.236-3.106-31.286-3.106-31.286l 73.447,0 c 0.72,7.442, 3.009,14.944, 8.405,20.349
			C 134.45,133.659, 157.507,140.742, 177.848,146.994z"  />
<glyph unicode="&#xe01f;" d="M 257.006,141.835c-28.092,8.783-38.783,29.665-41.941,50.331c 3.076,3.516, 6.1,7.229, 8.977,11.121
			c 18.379-5.889, 40.386-7.605, 59.255,6.047c-25.966,25.999-5.115,57.816-23.872,115.227c-15.94,48.808-81.327,46.384-89.767,29.214
			c-34.63,12.265-60.81-4.118-70.439-55.819c-11.053-59.354, 10.383-65.603-15.597-91.579c 19.945-11.396, 38.21-8.587, 54.088-2.308
			c 3.105-4.22, 6.408-8.291, 9.744-12.1c-3.188-20.601-13.897-41.366-41.923-50.134c-21.255-6.637-46.173-13.207-60.873-27.926
			c-11.611-11.606-3.876-39.369-3.876-39.369l 280.974,0 c0,0, 7.75,27.763-3.877,39.369
			C 303.179,128.628, 278.261,135.198, 257.006,141.835z M 360.344,154.854c-19.427,6.085-26.817,20.502-28.975,34.793
			c 2.109,2.424, 4.2,5.006, 6.197,7.688c 12.703-4.072, 27.928-5.265, 40.957,4.184c-17.953,17.954-3.53,39.961-16.514,79.628
			c-11.004,33.719-56.181,32.049-62.018,20.211c-10.254,3.626-19.377,3.595-27.028-0.346c 2.682-15.647, 2.908-29.119, 3.106-40.694
			c 0.293-20.274, 0.524-33.683, 12.509-45.688l 6.213-6.211l-7.113-5.132c-3.042-2.208-6.245-4.087-9.598-5.692
			c 2.108-2.811, 4.3-5.524, 6.556-8.076c-2.205-14.259-9.614-28.616-28.972-34.665c-2.027-0.622-4.086-1.263-6.149-1.896
			c 3.010-1.536, 6.23-2.878, 9.714-3.991c 2.059-0.619, 4.119-1.272, 6.227-1.912c 20.229-6.196, 43.12-13.261, 57.721-27.847
			c 3.074-3.074, 5.117-6.835, 6.459-10.858l 75.474,0 c0,0, 5.364,19.165-2.681,27.207C 392.259,145.729, 375.041,150.26, 360.344,154.854z
			 M 472.903,155.768c-6.999,7.034-18.871,10.14-29.008,13.309c-13.391,4.188-18.476,14.147-19.979,23.971
			c 1.453,1.699, 2.908,3.47, 4.284,5.319c 8.729-2.801, 19.259-3.62, 28.22,2.877c-12.359,12.374-2.42,27.552-11.378,54.902
			c-7.591,23.268-38.737,22.122-42.743,13.947c-11.888,4.188-21.648,1.292-27.924-9.775c 1.172-8.893, 1.338-16.692, 1.437-23.528
			c 0.242-15.092, 0.687-22.665, 7.978-29.975l 6.232-6.21l-2.83-2.029c 1.438-1.964, 2.959-3.829, 4.479-5.591
			c-1.505-9.829-6.605-19.72-19.947-23.908c-4.757-1.484-9.878-2.975-14.716-4.838c 1.734-0.849, 3.563-1.637, 5.576-2.238
			c 1.406-0.459, 2.828-0.883, 4.283-1.343c 14.227-4.367, 30.348-9.304, 40.861-19.799c 1.143-1.177, 2.091-2.485, 2.911-3.843l 64.11,0 
			C 474.749,137.016, 478.463,150.244, 472.903,155.768z"  />
<glyph unicode="&#xe020;" d="M 438.488,76.6c-19.689,19.678-53.045,28.459-81.495,37.354c-37.508,11.723-51.833,39.521-56.115,67.105
		c 4.122,4.689, 8.144,9.643, 12.003,14.813c 24.59-7.862, 54.055-10.161, 79.3,8.134c-34.762,34.764-6.866,77.386-31.95,154.179
		c-21.352,65.292-108.83,62.080-120.112,39.138c-46.402,16.392-81.396-5.549-94.277-74.71
		c-14.814-79.438, 13.896-87.825-20.866-122.575c 26.684-15.252, 51.146-11.523, 72.368-3.094c 4.187-5.634, 8.536-11.052, 13.019-16.139
		c-4.32-27.492-18.706-55.161-56.054-66.852c-28.48-8.895-61.804-17.676-81.493-37.354c-15.53-15.559-5.196-52.699-5.196-52.699
		l 376.034,0 C 443.652,23.9, 454.020,61.041, 438.488,76.6z"  />
<glyph unicode="&#xe021;" d="M 378.594,371.412l-51.951,0 l0-52.247 l 12.021,0 c-0.586-19.484-2.632-33.068-6.7-43.055c-4.973-12.141-12.647-20.826-28.882-31.934
	c-11.669-7.908-22.107-16.011-30.842-25.602L 272.24,387.9 l 18.431,0 l-32.198,55.291L 226.278,387.9L 244.7,387.9 l0-225.768 
	c-8.656,9.415-18.973,17.395-30.481,25.187c-16.23,11.107-23.908,19.794-28.882,31.934c-4.532,11.117-6.543,26.706-6.831,49.912
	c 10.486,5.126, 17.726,15.868, 17.726,28.325c0,17.42-14.119,31.541-31.542,31.541c-17.417,0-31.542-14.121-31.542-31.541
	c0-12.494, 7.285-23.263, 17.823-28.368c 0.313-24.652, 2.197-43.483, 8.81-60.126c 7.242-18.289, 20.47-32.060, 38.997-44.481
	c 16.771-11.354, 27.846-21.156, 35.008-33.614c 4.676-8.122, 8.046-17.935, 9.838-31.074c-20.537-5.646-35.647-24.395-35.647-46.722
	c0-26.792, 21.719-48.502, 48.507-48.502c 26.777,0, 48.496,21.71, 48.496,48.502c0,21.261-13.703,39.279-32.738,45.827l0,36.443 
	c 0.299,24.722, 4.374,40.381, 11.277,52.387c 7.169,12.445, 18.232,22.251, 35.012,33.609c 18.519,12.419, 31.749,26.188, 38.995,44.479
	c 5.988,15.080, 8.095,31.947, 8.677,53.315l 12.393,0 L 378.596,371.412 z"  />
<glyph unicode="&#xe022;" d="M 187.154,303.142l0-139.633 c0-15.601, 12.656-28.259, 28.252-28.259l 14.748,0 l0-118.936 l 51.146,0 L 281.3,135.25 l 14.748,0 
	c 15.615,0, 28.287,12.658, 28.287,28.259L 324.335,303.142 L 187.154,303.142 z M 289.445,241.694l-3.338,0 c-0.195-5.163-0.784-9.417-2.321-13.309
	c-2.028-5.133-5.772-8.993-10.792-12.325c-4.381-2.979-7.129-5.466-8.861-8.486c-1.7-2.948-2.746-6.855-2.828-13.229l0-8.783 
	c 5.084-2.139, 8.666-7.146, 8.666-12.98c0-7.768-6.295-14.080-14.078-14.080c-7.767,0-14.062,6.312-14.062,14.080
	c0,6.083, 3.858,11.263, 9.271,13.229c-0.491,2.81-1.26,4.938-2.306,6.718c-1.735,3.042-4.48,5.53-8.864,8.486
	c-5.019,3.354-8.729,7.194-10.756,12.331c-1.768,4.479-2.324,9.386-2.422,15.626c-2.812,1.639-4.725,4.712-4.725,8.229
	c0,5.313, 4.298,9.596, 9.599,9.596c 5.28,0, 9.58-4.283, 9.58-9.596c0-3.486-1.879-6.526-4.676-8.229
	c 0.1-5.654, 0.655-9.429, 1.701-11.997c 1.227-2.94, 2.975-4.97, 7.195-7.863c 2.192-1.49, 4.25-3.026, 6.099-4.727l0,55.493 l-5.771,0 
	l 10.675,18.348l 10.677-18.348l-5.787,0 l0-40.517 c 1.896,1.716, 3.956,3.271, 6.215,4.774c 4.184,2.91, 5.934,4.938, 7.16,7.896
	c 0.916,2.191, 1.455,5.265, 1.635,9.663l-3.123,0 l0,16.319 l 16.238,0 L 289.446,241.694 z M 308.723,431.792L 202.736,431.792 l0-100.43 l 105.987,0 L 308.723,431.792 z
	 M 242.548,355.169l-17.446,0 L 225.102,381.314 l 17.446,0 L 242.548,355.169 z M 285.389,355.169l-17.461,0 L 267.928,381.314 l 17.461,0 L 285.389,355.169 z"  />
<glyph unicode="&#xe023;" d="M 457.915,237.778L 269.053,237.778 l-0.004,78.416c0,33.277-12.63,63.824-33.538,86.175c-20.82,22.357-50.579,36.756-83.391,36.731
	c-32.814,0.024-62.57-14.375-83.391-36.731c-20.915-22.351-33.541-52.897-33.547-86.175l0-103.859 l 61.008,0 l0,13.476 l-35.656,35.656
	l 35.656,0 l0,54.728 c0,17.765, 6.717,33.406, 17.084,44.502c 10.463,11.090, 23.927,17.37, 38.845,17.394
	c 14.916-0.024, 28.375-6.304, 38.837-17.394c 10.375-11.096, 17.092-26.738, 17.087-44.502l0-78.416 l-26.189,0 
	c-9.159,0-16.582-7.426-16.582-16.585l0-194.53 c0-9.158, 7.423-16.583, 16.582-16.583l 276.060,0 c 9.164,0, 16.587,7.425, 16.587,16.583
	l0,194.53 C 474.502,230.353, 467.079,237.778, 457.915,237.778z"  />
<glyph unicode="&#xe024;" d="M 255.176,446.956c-122.418,0-222.014-99.596-222.014-222.017c0-122.417, 99.596-222.014, 222.014-222.014
	c 122.421,0, 222.020,99.597, 222.020,222.014C 477.195,347.36, 377.597,446.956, 255.176,446.956z M 255.176,421.913
	c 108.787,0, 196.982-88.187, 196.982-196.974c0-13.479-1.366-26.636-3.941-39.35c-12.725-40.065-50.199-69.1-94.465-69.1
	c-54.748,0-99.137,44.377-99.137,99.123c0,54.744-44.379,99.124-99.126,99.124c-47.665,0-87.448-33.651-96.942-78.492
	C 64.41,339.768, 150.189,421.913, 255.176,421.913z"  />
<glyph unicode="&#xe025;" d="M 364.26,297.604c 12.688,0.081, 25.018-1.947, 36.66-5.971c-9.091,9.87-19.001,18.611-29.596,26.066
	c-34.059,24.212-73.679,34.865-111.596,34.809c-44.784-0.105-88.015-14.132-124.348-39.161l-63.555,63.547L 49.442,142.803
	l 234.077,22.416l-64.746,64.762C 267.057,272.785, 317.791,297.404, 364.26,297.604z M 462.887,69.279l0,35.424 
	c0,39.219-5.164,74.258-15.27,105.242c-0.768,2.338-1.572,4.625-2.404,6.924c-2.992,6.385-6.277,12.166-9.794,17.327
	c-18.476,26.829-42.119,38.233-71.159,38.472c-28.138,0.147-61.527-11.988-95.717-35.262c 8.092-0.806, 15.762-2.704, 22.793-5.65
	c 14.259-6.177, 26.619-15.89, 37.494-34.859c 10.709-18.94, 19.391-48.411, 19.406-92.192l0-35.424 L 462.887,69.281 z"  />
<glyph unicode="&#xe026;" d="M 267.709,408.923L 267.709,437.945 l-25.72,0 l0-29.022 C 127.396,402.26, 36.515,307.238, 36.515,190.971l 4.634,0 
	c 7.414,20.715, 27.156,35.559, 50.416,35.559c 23.258,0, 43.001-14.844, 50.417-35.559l 8.023,0 c 7.416,20.715, 27.156,35.559, 50.417,35.559
	c 17.003,0, 32.104-7.956, 41.906-20.316l0-148.201 c 0.006-25.669, 20.802-46.455, 46.465-46.461c 25.657,0.006, 46.454,20.792, 46.46,46.461
	c0,6.917-5.606,12.518-12.522,12.518c-6.913,0-12.519-5.601-12.519-12.518c-0.023-11.826-9.598-21.403-21.419-21.419
	c-11.828,0.016-21.401,9.593-21.428,21.419L 267.365,206.209 c 9.802,12.364, 24.905,20.32, 41.911,20.32c 23.26,0, 43.002-14.844, 50.418-35.559
	l 8.022,0 c 7.417,20.715, 27.157,35.559, 50.417,35.559c 23.259,0, 43.002-14.844, 50.416-35.559l 4.632,0 
	C 473.183,307.238, 382.304,402.262, 267.709,408.923z"  />
<glyph unicode="&#xe027;" d="M 256.016,430.704c-117.152,0-212.112-94.96-212.112-212.096c0-80.32, 44.656-150.192, 110.496-186.192l0,47.616 
		c-42.656,31.344-70.496,81.712-70.496,138.576c0,94.896, 77.2,172.096, 172.112,172.096c 94.896,0, 172.080-77.2, 172.080-172.096
		c0-56.88-27.84-107.248-70.496-138.592l0-47.6 c 65.84,36, 110.496,105.872, 110.496,186.192C 468.096,335.744, 373.152,430.704, 256.016,430.704zM 261.936,299.936c-1.52,1.664-3.664,2.608-5.904,2.608s-4.384-0.944-5.904-2.608l-82.288-90.128
		c-2.144-2.336-2.688-5.712-1.408-8.624c 1.264-2.896, 4.144-4.768, 7.312-4.768l 34.688,0 l0-171.12 c0-4.416, 3.584-8, 8-8l 79.136,0 
		c 4.416,0, 8,3.584, 8,8L 303.568,196.4 l 34.672,0 c 3.168,0, 6.048,1.872, 7.312,4.768c 1.28,2.896, 0.736,6.272-1.408,8.624L 261.936,299.936z"  />
<glyph unicode="&#xe028;" d="M 444.72,264.72L 67.28,264.72 c-11.040,0-20,8.96-20,20L 47.28,415.104 c0,11.040, 8.96,20, 20,20l 377.44,0 c 11.040,0, 20-8.96, 20-20
			l0-130.384 C 464.72,273.664, 455.76,264.72, 444.72,264.72z M 87.28,304.72l 337.44,0 L 424.72,395.104 L 87.28,395.104 L 87.28,304.72 zM 272.784,89.024c0,6.848, 0.704,13.504, 1.936,20L 87.28,109.024 l0,90.384 l 337.44,0 l0-12.496 c 15.712-7.152, 29.424-17.968, 40-31.36l0,63.856 
		c0,11.040-8.96,20-20,20L 67.28,239.408 c-11.040,0-20-8.96-20-20l0-130.384 c0-11.040, 8.96-20, 20-20L 274.72,69.024 
		C 273.488,75.52, 272.784,82.176, 272.784,89.024zM 380.336,165.152c-41.968,0-76.112-34.16-76.112-76.128s 34.144-76.128, 76.112-76.128s 76.128,34.16, 76.128,76.128
		S 422.32,165.152, 380.336,165.152z M 426.352,84.688c0-4.032-3.264-7.296-7.296-7.296l-27.072,0 l0-27.088 c0-4.032-3.264-7.296-7.296-7.296L 376,43.008 
		c-4.032,0-7.296,3.264-7.296,7.296l0,27.088 l-27.072,0 c-4.032,0-7.296,3.264-7.296,7.296l0,8.672 c0,4.032, 3.264,7.296, 7.296,7.296l 27.072,0 
		l0,27.088 c0,4.032, 3.264,7.296, 7.296,7.296l 8.688,0 c 4.032,0, 7.296-3.264, 7.296-7.296l0-27.088 l 27.072,0 c 4.032,0, 7.296-3.264, 7.296-7.296
		L 426.352,84.688 z"  />
<glyph unicode="&#xe029;" d="M 440.624,128.336c-0.192,0.176-189.248,167.392-189.248,167.392c 3.088,9.776, 4.72,20.080, 4.72,30.64
		c0,27.056-10.528,52.496-29.664,71.632s-44.56,29.664-71.632,29.664c-12.72,0-25.056-2.416-36.56-6.88l 54.848-54.864l0-57.856 L 115.248,308.064 L 60.432,362.896
		c-13.968-36.256-6.432-78.976, 22.752-108.16c 19.12-19.12, 44.56-29.664, 71.632-29.664c 9.312,0, 18.4,1.328, 27.12,3.744
		c0,0, 166.72-189.008, 167.472-189.76c 12.064-12.064, 28.096-18.704, 45.152-18.704c 17.088,0, 33.12,6.656, 45.184,18.72
		C 464.32,63.632, 464.528,103.344, 440.624,128.336z M 394.816,58.384c-14.288,0-25.84,11.584-25.84,25.856s 11.568,25.856, 25.84,25.856
		c 14.256,0, 25.84-11.584, 25.84-25.856S 409.056,58.384, 394.816,58.384z"  />
<glyph unicode="&#xe02a;" d="M 184.32,236.608c 23.136-42.592, 51.664-51.536, 71.52-51.536c 19.824,0, 48.352,8.928, 71.68,51.424l 1.552,2.816
		c 12.512,22.72, 20.784,37.728, 20.784,73.072c0,55.616-11.168,112.448-94.016,112.448c-93.472,0-93.472-75.952-93.472-112.448
		c0-35.376, 8.176-50.432, 20.544-73.2L 184.32,236.608zM 452.336,109.808l-104.192,46.672c-3.040,1.344-6.496,1.392-9.568,0.112l-53.936-22.688l-57.152,0 l-53.952,22.528
		c-3.040,1.28-6.48,1.232-9.52-0.112l-104.336-46.56c-4.336-1.936-7.104-6.224-7.104-10.96l0-63.632 c0-6.624, 5.376-12, 12-12l 382.848,0 
		c 6.624,0, 12,5.376, 12,12l0,63.696 C 459.424,103.584, 456.64,107.872, 452.336,109.808z"  />
<glyph unicode="&#xe02b;" d="M 451.056,407.424L 60.944,407.424 c-10.72,0-19.424-8.688-19.424-19.424l0-328 c0-10.72, 8.688-19.424, 19.424-19.424l 390.128,0 
		c 10.72,0, 19.424,8.688, 19.424,19.424L 470.496,388 C 470.48,398.72, 461.776,407.424, 451.056,407.424z M 431.648,79.424L 80.352,79.424 L 80.352,368.576 l 351.28,0 L 431.632,79.424 zM 122.224,113.904l 267.568,0 c 6.112,0, 11.472,4.096, 13.056,10c 1.616,5.904-0.944,12.144-6.224,15.232l-111.488,65.36
		c-4.992,2.928-11.28,2.368-15.68-1.424l-27.264-23.504l-52.736,45.328c-2.944,2.528-6.816,3.616-10.656,3.152
		c-3.84-0.528-7.264-2.672-9.424-5.888l-58.4-87.168c-2.784-4.16-3.056-9.504-0.688-13.92C 112.624,116.672, 117.216,113.904, 122.224,113.904zM 320.192,281.744A41.056,41.056 180 1 1 402.304,281.744A41.056,41.056 180 1 1 320.192,281.744z"  />
<glyph unicode="&#xe02c;" d="M 410.48,331.6l-93.312,93.312c-7.504,7.504-17.664,11.712-28.288,11.712L 129.808,436.624 c-22.096,0-40-17.904-40-40l0-345.248 
		c0-22.096, 17.904-40, 40-40l 252.368,0 c 22.096,0, 40,17.904, 40,40L 422.176,303.312 C 422.192,313.92, 417.984,324.096, 410.48,331.6z M 129.808,51.376L 129.808,396.624 
		l 151.088,0 l 0.064-0.192c 0.080-0.304, 8.64-31.28-6.128-88.064c-0.784-2.992, 0.224-6.16, 2.544-8.16c 2.336-2.016, 5.632-2.512, 8.448-1.296
		c 62.528,26.784, 94.704-3.36, 96.336-4.976l0-242.576 L 129.808,51.36 z"  />
<glyph unicode="&#xe02d;" d="M 451.936,264.736l-38.080,13.552c-2.224,6.464-4.864,12.8-7.856,18.944l 17.344,36.496c 2.912,6.112, 1.648,13.392-3.136,18.176
		l-36.288,36.304c-4.768,4.784-12.064,6.064-18.192,3.136l-36.496-17.36c-6.144,3.008-12.48,5.632-18.96,7.856l-13.536,38.080
		c-2.272,6.384-8.32,10.64-15.072,10.64l-51.328,0 c-6.768,0-12.816-4.272-15.072-10.64l-13.536-38.080c-6.464-2.224-12.816-4.848-18.96-7.856
		L 146.272,391.344C 140.144,394.272, 132.848,392.992, 128.080,388.208L 91.792,351.904C 87.008,347.12, 85.744,339.84, 88.656,333.728l 17.36-36.496
		c-3.008-6.16-5.648-12.48-7.856-18.96l-38.080-13.536c-6.368-2.272-10.64-8.32-10.64-15.072l0-51.328 c0-6.768, 4.256-12.8, 10.64-15.072
		l 38.064-13.536c 2.224-6.464, 4.848-12.8, 7.856-18.96l-17.36-36.512c-2.912-6.112-1.648-13.392, 3.136-18.176l 36.288-36.288
		c 4.768-4.784, 12.064-6.016, 18.176-3.136l 36.496,17.36c 6.16-3.008, 12.496-5.648, 18.96-7.872l 13.536-38.064
		c 2.272-6.384, 8.304-10.64, 15.072-10.64l 51.328,0 c 6.768,0, 12.8,4.256, 15.072,10.64l 13.552,38.064c 6.464,2.224, 12.8,4.864, 18.944,7.872
		l 36.496-17.36c 6.112-2.896, 13.408-1.648, 18.176,3.136l 36.288,36.288c 4.784,4.784, 6.048,12.064, 3.136,18.176l-17.344,36.496
		c 3.008,6.144, 5.632,12.496, 7.856,18.96l 38.064,13.536c 6.384,2.272, 10.64,8.304, 10.64,15.072l0,51.328 
		C 462.56,256.416, 458.304,262.464, 451.936,264.736z M 256,149.488c-41.136,0-74.512,33.344-74.512,74.512s 33.36,74.512, 74.512,74.512
		s 74.512-33.344, 74.512-74.512S 297.136,149.488, 256,149.488z"  />
<glyph unicode="&#xe02e;" d="M 256.209,40.253c 55.070,0, 99.705,22.302, 99.705,49.868L 156.469,90.121 C 156.469,62.555, 201.138,40.253, 256.209,40.253z
	 M 460.528,408.106L 51.887,408.106 c-6.801,0-12.329-5.51-12.329-12.327l0-268.51 c0-6.803, 5.528-12.325, 12.329-12.325l 408.642,0 
	c 6.802,0, 12.296,5.522, 12.296,12.325L 472.825,395.779 C 472.824,402.597, 467.33,408.106, 460.528,408.106z M 442.904,144.854L 69.482,144.854 L 69.482,378.182 l 373.422,0 
	L 442.904,144.854 z"  />
<glyph unicode="&#xe02f;" d="M 462.346,405.841L 50.471,405.841 c-6.803,0-12.328-5.509-12.328-12.343L 38.143,111.8 c0-6.803, 5.525-12.324, 12.328-12.324l 411.875,0 
	c 6.836,0, 12.329,5.521, 12.329,12.324L 474.675,393.498 C 474.675,400.332, 469.182,405.841, 462.346,405.841z M 356.394,198.541
	c0-12.754-8.798-28.853-19.554-35.726c0,0-41.86-26.78-117.598-26.78c-75.702,0-117.562,26.78-117.562,26.78
	c-10.758,6.873-19.556,22.972-19.556,35.726L 82.124,306.312 c0,12.787, 8.798,28.862, 19.556,35.745c0,0, 41.86,26.786, 117.562,26.786
	c 75.737,0, 117.598-26.786, 117.598-26.786c 10.756-6.883, 19.554-22.958, 19.554-35.745L 356.394,198.541 z M 420.066,241.858
	c-10.369,0-18.773,8.405-18.773,18.769c0,10.365, 8.404,18.743, 18.773,18.743c 10.362,0, 18.736-8.378, 18.736-18.743
	C 438.803,250.264, 430.429,241.858, 420.066,241.858z M 420.066,307.030c-10.369,0-18.773,8.409-18.773,18.737
	c0,10.369, 8.404,18.774, 18.773,18.774c 10.362,0, 18.736-8.405, 18.736-18.774C 438.803,315.439, 430.429,307.030, 420.066,307.030z
	 M 106.684,42.506l 287.58,0 l0,30.643 l-287.58,0 L 106.684,42.506 z"  />
<glyph unicode="&#xe030;" d="M 281.693,139.078l0,41.975 c-8.16-1.815-16.615-2.763-25.297-2.763c-8.86,0-17.527,1.017-25.85,2.878l0-42.761 
	c-0.36-28.267-23.363-51.078-51.749-51.078l-3.237,0 l0-30.656 L 336.68,56.673 l0,30.656 l-3.204,0 C 304.861,87.329, 281.693,110.498, 281.693,139.078z
	 M 423.601,361.19l-0.589,12.264l-73.84,0 L 349.172,391.699 l-185.55,0 l0-18.276 L 89.817,373.423 l-0.623-12.184c0-0.179-0.064-1.453-0.064-3.528
	c 0.064-8.62, 0.817-31.513, 11.413-54.044c 5.329-11.216, 13.375-22.464, 25.343-30.888c 11.674-8.221, 26.947-13.32, 45.325-13.536
	c 14.226-32.979, 46.991-56.035, 85.186-56.035c 38.164,0, 70.965,23.056, 85.189,56.035c 18.346,0.216, 33.65,5.315, 45.325,13.536
	c 18.019,12.705, 26.946,31.381, 31.588,47.63c 4.645,16.352, 5.151,30.843, 5.151,37.315C 423.65,359.786, 423.601,360.995, 423.601,361.19z
	 M 140.669,293.825c-11.252,7.816-17.957,20.649-21.634,33.649c-2.11,7.309-3.172,14.502-3.71,20.244l 48.297,0 l0-51.733 
	c0-3.566, 0.23-7.099, 0.623-10.562C 154.156,286.564, 146.683,289.677, 140.669,293.825z M 389.005,314.723
	c-3.942-8.292-9.354-15.602-16.875-20.897c-6.001-4.148-13.508-7.261-23.577-8.402c 0.392,3.464, 0.619,6.996, 0.619,10.562l0,51.733 
	l 48.285,0 C 396.592,338.607, 394.383,325.871, 389.005,314.723z"  />
<glyph unicode="&#xe031;" d="M 406.566,256.252c0,21.37-9.564,40.481-24.657,53.335c 1.699,6.181, 2.616,12.673, 2.616,19.408
	c0,40.075-32.211,72.616-72.139,73.186c-8.078,22.124-29.303,37.95-54.221,37.95c-24.919,0-46.16-15.826-54.219-37.95
	c-39.962-0.569-72.173-33.11-72.173-73.186c0-5.934, 0.753-11.708, 2.076-17.253c-16.627-12.784-27.353-32.895-27.353-55.49
	c0-32.211, 21.81-59.354, 51.44-67.499c 0.099-2.481, 0.195-5.049, 0.195-7.684c0-22.763, 28.976-41.202, 64.685-41.202
	c 0.586,0, 1.16,0, 1.749,0.015l0-131.643 l 65.894,0 L 290.459,139.882 c 0.753-0.015, 1.486-0.015, 2.241-0.015c 35.726,0, 64.683,18.439, 64.683,41.202
	c0,2.831-0.033,5.593-0.194,8.274C 385.77,198.138, 406.566,224.791, 406.566,256.252z"  />
<glyph unicode="&#xe032;" d="M 122.844,4.481l 263.145,0 L 385.989,284.297 L 122.844,284.297 L 122.844,4.481 z M 304.125,228.271c0,8.498, 6.891,15.386, 15.395,15.386
	c 8.494,0, 15.385-6.888, 15.385-15.386l0-162.128 c0-8.496-6.891-15.394-15.385-15.394c-8.504,0-15.395,6.897-15.395,15.394L 304.125,228.271 z
	 M 239.024,228.268c0,8.496, 6.892,15.392, 15.39,15.392c 8.496,0, 15.392-6.896, 15.392-15.392l0-162.125 
	c0-8.496-6.896-15.391-15.392-15.391c-8.498,0-15.39,6.895-15.39,15.391L 239.024,228.268 z M 173.926,228.268
	c0,8.501, 6.895,15.392, 15.389,15.392c 8.498,0, 15.391-6.891, 15.391-15.392l0-162.127 c0-8.498-6.893-15.389-15.391-15.389
	c-8.494,0-15.389,6.891-15.389,15.389L 173.926,228.268 z M 399.020,389.77l-57.209,0 l0,9.36 c-0.004,24.942-20.209,45.145-45.148,45.152l-84.498,0 
	c-24.941-0.007-45.145-20.209-45.153-45.152l0-9.36 l-57.2,0 c-11.744,0-21.273-9.526-21.273-21.275l0-56.348 l 331.756,0 l0,56.348 
	C 420.293,380.243, 410.768,389.77, 399.020,389.77z M 311.031,389.77L 197.785,389.77 l-0.004,9.36c 0.023,7.938, 6.445,14.359, 14.383,14.372l 84.498,0 
	c 7.929-0.013, 14.359-6.433, 14.369-14.372L 311.031,389.77 z"  />
<glyph unicode="&#xe033;" d="M 123.8,4.271l 263.142,0 l 25.235,287.633L 98.566,291.904 L 123.8,4.271z M 425.020,389.554l-82.252,0 l0,9.367 
	c-0.011,24.943-20.209,45.144-45.146,45.146l-84.502,0 c-24.945-0.002-45.144-20.202-45.156-45.146l0-9.367 L 85.724,389.554 
	c-11.746,0-21.273-9.525-21.273-21.272l0-51.338 l 381.841,0 l0,51.338 C 446.292,380.028, 436.766,389.554, 425.020,389.554z M 311.992,389.554
	L 198.746,389.554 l0,9.367 c 0.009,7.93, 6.441,14.355, 14.373,14.376l 84.502,0 c 7.928-0.021, 14.354-6.446, 14.371-14.376L 311.992,389.554 z"  />
<glyph unicode="&#xe034;" d="M 438.474,362.9c0,36.855-50.238,48.518-66.746,52.348c-31.23,7.25-72.334,11.242-115.73,11.242
	c-43.395,0-84.496-3.992-115.727-11.242c-16.508-3.83-66.744-15.492-66.744-52.348c0-13.449, 9.605-24.643, 22.328-27.127
	l 53.32-251.887c-3.867-4.383-6.23-10.121-6.23-16.426c0-19.967, 15.898-33.471, 47.252-40.139c 17.645-3.75, 41.014-5.812, 65.801-5.812
	c 24.789,0, 48.158,2.062, 65.803,5.812c 31.354,6.668, 47.252,20.172, 47.252,40.139c0,6.305-2.365,12.043-6.232,16.426l 53.326,251.887
	C 428.866,338.258, 438.474,349.451, 438.474,362.9z M 125.798,350.344c 0.434,0.848, 0.838,1.707, 1.182,2.6
	c 3.309,1.84, 8.799,3.941, 16.309,6.047l 76.107-35.805l-79.559-39.162L 125.798,350.344z M 253.093,307.332l 82.639-38.881
	l-79.732-38.186l-80.828,38.709L 253.093,307.332z M 222.306,214.131l-61.445-29.428l-13.863,65.494L 222.306,214.131z
	 M 255.999,197.994l 69.279-33.178l-69.279-33.18l-69.277,33.18L 255.999,197.994z M 222.308,115.5l-42.49-20.348l-9.586,45.291
	L 222.308,115.5z M 255.999,99.367l 50.756-24.309c-12.172-2.127-29.57-3.824-50.758-3.824c-21.186,0-38.582,1.697-50.754,3.824
	L 255.999,99.367z M 332.177,95.154L 289.69,115.5l 52.074,24.939L 332.177,95.154z M 351.136,184.705l-61.443,29.426l 75.307,36.064
	L 351.136,184.705z M 286.503,323.777l 75.223,37.025c 11.164-2.689, 19.035-5.492, 23.293-7.859c 0.344-0.893, 0.75-1.752, 1.182-2.6
	l-14.145-66.816L 286.503,323.777z M 311.796,368.668l-58.99-29.037l-60.092,28.273c 17.965,1.988, 39.156,3.285, 63.283,3.285
	C 276.858,371.189, 295.511,370.217, 311.796,368.668z"  />
<glyph unicode="&#xe035;" d="M 377.747,131.255L 377.747,370.108 c0,0-5.349,63.34-121.355,63.34c-116.027,0-121.358-63.31-121.358-63.31l0-238.884 
	c0-13.346, 10.072-24.15, 22.484-24.15l 48.709,0 l-68.379-93.034l 38.031,0 l 11.903,16.199l 139.031,0 l 11.805-16.199l 37.92,0 l-67.791,93.034
	l 46.501,0 C 367.673,107.104, 377.747,117.909, 377.747,131.255z M 210.314,60.928l 12.195,16.582l 69.869,0 l 12.098-16.582L 210.314,60.928 z
	 M 239.874,416.037l 32.997,0 c 10.334,0, 18.705-8.387, 18.705-18.722c0-10.318-8.371-18.688-18.705-18.688l-32.997,0 
	c-10.316,0-18.687,8.37-18.687,18.688C 221.187,407.649, 229.558,416.037, 239.874,416.037z M 168.356,345.435
	c0,6.49, 6.508,11.755, 14.536,11.755l 147.010,0 c 8.013,0, 14.521-5.265, 14.521-11.755l0-82.216 c0,0-13.112-22.578-88.031-22.578
	c-74.921,0-88.035,22.6-88.035,22.6L 168.357,345.435 z M 167.9,162.909c0,15.072, 12.23,27.305, 27.305,27.305
	c 15.076,0, 27.305-12.232, 27.305-27.305c0-15.077-12.229-27.307-27.305-27.307C 180.13,135.603, 167.9,147.832, 167.9,162.909z
	 M 319.635,135.603c-15.060,0-27.272,12.229-27.272,27.307c0,15.072, 12.213,27.305, 27.272,27.305
	c 15.092,0, 27.307-12.232, 27.307-27.305C 346.941,147.832, 334.727,135.603, 319.635,135.603z"  />
<glyph unicode="&#xe036;" d="M 324.727,234.449l 89.521,73.883l-89.521,73.885l0-48.2 L 140.551,334.017 l0-51.362 l 184.175,0 L 324.726,234.449 z M 185.927,213.932L 96.406,140.050
	l 89.521-73.887L 185.927,114.37 l 183.761,0 l0,51.363 L 185.927,165.733 L 185.927,213.932 z"  />
<glyph unicode="&#xe037;" d="M 196.861,221.796l 89.142,73.582l-89.142,73.574l0-48.004 L 38.404,320.948 l0-51.147 l 158.457,0 L 196.861,221.796 z M 315.765,226.311l-89.144-73.583
	l 89.144-73.574L 315.765,127.16 l 158.046,0 l0,51.146 L 315.765,178.306 L 315.765,226.311 z"  />
<glyph unicode="&#xe038;" d="M 368.928,41.073L 368.928,252.865 c0,0-30.216,11.004-30.216,154.301l-24.068,0 c0,0, 5.982-100.604-54.774-100.604l-8.504,0 
	c-60.758,0-54.774,100.604-54.774,100.604L 172.49,407.166 c0-143.296-30.218-154.301-30.218-154.301l0-211.792 L 368.928,41.073 z"  />
<glyph unicode="&#xe039;" d="M 167.564,242.117c 0.098-0.098, 0.18-0.207, 0.279-0.307l 41.582-41.581l 14.504,14.504l-15.655,15.652l-7.078,7.085
	l 36.284,36.283l 4.785-0.532c 1.221-0.14, 2.468-0.208, 3.709-0.208c 2.506,0, 4.96,0.308, 7.346,0.841l-26.714,26.717
	c-0.539,0.541-1.122,1.017-1.685,1.524c 8.233,29.596, 0.738,62.65-22.536,85.922c-23.101,23.104-55.84,30.654-85.27,22.712
	l 49.864-49.861l-13.092-48.849l-48.85-13.095L 55.173,348.79c-7.944-29.435-0.386-62.177, 22.715-85.276
	C 102.146,239.253, 137.041,232.136, 167.564,242.117z M 314.902,212.272c-0.812-3.578-1.030-7.315-0.612-11.079l 0.531-4.783
	l-3.406-3.405l-25.792-25.8l-7.084-7.078l-22.736,22.736l-14.506-14.506l 131.626-131.632c 8.116-8.113, 18.749-12.168, 29.385-12.168
	c 10.632,0, 21.266,4.055, 29.376,12.168c 16.231,16.229, 16.231,42.537,0,58.762L 314.902,212.272z M 416.531,50.365l-20.877-5.594
	l-16.938,16.94l 5.595,20.873l 20.879,5.597l 16.937-16.939L 416.531,50.365z M 255.954,196.874l 22.742-22.741l 25.797,25.797
	c-1.399,12.586, 2.698,25.662, 12.346,35.307c 9.644,9.645, 22.721,13.74, 35.302,12.346l 112.796,112.796l-63.181,63.177L 288.963,310.76
	c 1.398-12.582-2.701-25.658-12.346-35.307c-9.646-9.646-22.722-13.74-35.307-12.342l-25.794-25.799l 22.731-22.733L 126.792,103.123
	l-4.077,4.078l-21.396-17.233l-35.987-56.832l 9.187-9.189l 56.838,35.985l 17.228,21.396l-4.092,4.088L 255.954,196.874z"  />
<glyph unicode="&#xe03a;" d="M 401.477,344.996c-28.908,28.903-64.812,46.452-102.289,52.749L 299.188,438.486 l-65.894,0 l0-41.235 
	c-19.261-3.515-38.063-10.038-55.659-19.587L 144.15,411.115l 11.38,11.38l-21.685,21.687l-96.401-96.408l 21.681-21.685l 13.537,13.571
	l 32.080-32.077c-43.102-72.631-33.387-167.825, 29.074-230.282c 73.904-73.893, 193.756-73.893, 267.66,0
	C 475.418,151.201, 475.418,271.057, 401.477,344.996z M 360.862,117.946c-51.407-51.41-135.026-51.41-186.431,0
	c-51.377,51.376-51.377,134.992,0,186.435c 51.404,51.373, 135.023,51.373, 186.431,0C 412.236,252.938, 412.236,169.322, 360.862,117.946
	z M 333.947,226.383l-59.451,0.951l-64.941,64.946c-6.379,6.372-16.68,6.372-23.057,0c-6.375-6.331-6.375-16.679,0-23.058
	l 74.299-74.267l 72.631-1.142c 4.641-0.084, 8.796,1.731, 11.805,4.742c 2.876,2.909, 4.705,6.864, 4.775,11.28
	C 350.139,218.832, 342.976,226.273, 333.947,226.383z"  />
<glyph unicode="&#xe03b;" d="M 255.169,442.284c 120.399,0, 217.999-97.602, 217.999-217.999c0-120.394-97.6-217.996-217.999-217.996
				c-120.397,0-217.998,97.603-217.998,217.996C 37.171,344.683, 134.772,442.284, 255.169,442.284 M 255.169,376.111
				c-83.716,0-151.826-68.108-151.826-151.826c0-83.715, 68.11-151.826, 151.826-151.826s 151.826,68.111, 151.826,151.826
				C 406.995,308.003, 338.885,376.111, 255.169,376.111L 255.169,376.111zM 294.625,156.57l-58.234,60.113L 236.391,337.687 c0,10.371, 8.405,18.775, 18.779,18.775l0,0c 10.371,0, 18.78-8.405, 18.78-18.775l0,0
		l-0.005-105.793l 47.654-49.194c 7.217-7.447, 7.030-19.334-0.424-26.553l0,0c-3.646-3.531-8.355-5.289-13.064-5.289l0,0
		C 303.208,150.857, 298.307,152.766, 294.625,156.57L 294.625,156.57z"  />
<glyph unicode="&#xe03c;" d="M 368.631,380.329l-43.018,14.093c-4.054-10.667-10.809-19.829-19.147-26.833c-13.506-11.443-31.147-17.844-49.951-17.85
	c-18.787,0.005-36.413,6.417-49.886,17.814c-8.372,7.022-15.126,16.201-19.195,26.869l-43.002-14.093l-77.078-67.022l 30.673-41.5
	l 49.509,0 l0-220.054 l 217.992,0 L 365.528,271.806 l 49.476,0.011l 30.705,41.489L 368.631,380.329z"  />
<glyph unicode="&#xe03d;" d="M 252.263,249.037L 92.58,249.037 l0-51.146 l 159.683,0 l0-48.007 l 89.16,73.576l-89.16,73.582L 252.263,249.037 z M 368.975,332.097L 368.975,117.28 l 51.18,0 L 420.155,332.097 
	L 368.975,332.097 zM 157.459,224.691"  />
<glyph unicode="&#xe03e;" d="M 422.444,196.3l0,95.826 c0,13.828-11.21,25.039-25.038,25.039l-282.47,0 c-13.828,0-25.038-11.211-25.038-25.039L 89.898,196.3 L 37.838,196.3 
	l0-65.401 l 436.664,0 L 474.502,196.3 L 422.444,196.3 z"  />
<glyph unicode="&#xe03f;" d="M 137.991,397.691L 108.788,368.486L 79.584,397.691L 53.221,371.33L 82.427,342.125L 53.221,312.92L 79.584,286.559L 108.788,315.762L 137.991,286.559L 164.355,312.92L 135.149,342.125L 164.355,371.33 	zM 137.991,161.578L 108.788,132.373L 79.584,161.578L 53.221,135.215L 82.427,106.008L 53.221,76.803L 79.584,50.441L 108.788,79.645L 137.991,50.441L 164.355,76.803L 135.149,106.008L 164.355,135.215 	zM 458.779,260.508L 432.418,286.873L 403.212,257.668L 374.006,286.873L 347.643,260.508L 376.849,231.305L 347.643,202.1L 374.006,175.736L 403.212,204.943L 432.418,175.736L 458.779,202.1L 429.575,231.305 	zM 323.469,145.52c-35.204,0-63.744-28.539-63.744-63.742c0-35.207, 28.54-63.75, 63.744-63.75
		c 35.207,0, 63.746,28.543, 63.746,63.75C 387.215,116.98, 358.676,145.52, 323.469,145.52z M 323.469,55.314
		c-14.59,0-26.461,11.867-26.461,26.463c0,14.59, 11.871,26.461, 26.461,26.461c 14.592,0, 26.463-11.871, 26.463-26.461
		C 349.932,67.182, 338.062,55.314, 323.469,55.314zM 223.84,241.764l 112.612,112.613l 28.023-28.021l 21.212,103.617L 282.067,408.76l 28.022-28.023L 184.297,254.949
		c-7.28-7.285-7.28-19.086,0-26.367l 71.525-71.521l 26.361,26.359L 223.84,241.764z"  />
<glyph unicode="&#xe040;" d="M 396.022,395.967l-108.391-0.003L 84.305,193.696L 224.947,53.050l 199.867,199.87L 424.814,367.172 L 396.022,395.967z M 388.122,318.239
		c-11.337-11.339-29.72-11.339-41.058,0c-11.34,11.334-11.34,29.718,0,41.055c 11.336,11.344, 29.721,11.344, 41.058,0.004
		C 399.459,347.957, 399.46,329.574, 388.122,318.239z"  />
<glyph unicode="&#xe041;" d="M 411.412,353.621L 303.020,353.621 L 99.692,151.353l 140.645-140.649l 199.869,199.87L 440.206,324.829 L 411.412,353.621z M 403.511,275.896
		c-11.336-11.338-29.72-11.338-41.058,0c-11.34,11.337-11.34,29.72,0,41.054c 11.338,11.344, 29.722,11.344, 41.058,0.004
		C 414.848,305.615, 414.849,287.232, 403.511,275.896zM 287.236,369.485L 293.785,376.003L 411.414,376.003L 411.414,407.924L 382.621,436.72L 274.229,436.714L 70.903,234.446L 111.090,194.257 z"  />
<glyph unicode="&#xe042;" d="M 368.255,349.423l-3.824,0 l-17.005,40.696L 165.178,390.119 l-17.004-40.696l-3.86,0 c-6.865,0-12.458-5.592-12.458-12.464
	c0-6.896, 5.593-12.49, 12.458-12.49l 223.941,0 c 6.902,0, 12.493,5.594, 12.493,12.49C 380.748,343.831, 375.157,349.423, 368.255,349.423z
	 M 318.681,350.303l-15.107,0 c-6.672,0-12.067,5.362-12.067,12.070c0,6.668, 5.396,12.096, 12.067,12.096l 15.107,0 
	c 6.668,0, 12.067-5.428, 12.067-12.096C 330.748,355.665, 325.349,350.303, 318.681,350.303z M 175.513,58.832l 161.578,0 l 23.969,242.023
	L 151.542,300.855 L 175.513,58.832z"  />
<glyph unicode="&#xe043;" d="M 323.389,223.484c0-37.027-30.018-67.046-67.042-67.046c-37.026,0-67.044,30.019-67.044,67.046
		c0,37.025, 30.018,67.038, 67.044,67.038C 293.371,290.522, 323.389,260.51, 323.389,223.484zM 71.543,223.484C 71.56,325.562, 154.27,408.265, 256.345,408.29l0,0c 102.074-0.025, 184.781-82.729, 184.804-184.806l0,0
		c-0.022-102.073-82.729-184.779-184.804-184.8l0,0C 154.27,38.705, 71.56,121.411, 71.543,223.484L 71.543,223.484z M 167.729,312.094
		c-22.726-22.771-36.689-53.906-36.705-88.609l0,0c 0.016-34.698, 13.979-65.839, 36.705-88.612l0,0
		c 22.775-22.721, 53.914-36.683, 88.615-36.7l0,0c 34.7,0.018, 65.839,13.979, 88.616,36.7l0,0
		c 22.725,22.773, 36.688,53.914, 36.705,88.612l0,0c-0.018,34.703-13.986,65.838-36.705,88.609l0,0
		c-22.777,22.728-53.916,36.695-88.616,36.707l0,0C 221.643,348.789, 190.505,334.821, 167.729,312.094L 167.729,312.094z"  />
<glyph unicode="&#xe044;" d="M 256.39,420.202c-108.323,0-196.144-87.821-196.144-196.165c0-108.324, 87.821-196.157, 196.144-196.157
	c 108.338,0, 196.145,87.833, 196.145,196.157C 452.535,332.381, 364.729,420.202, 256.39,420.202z M 259.824,81.053
	c-21.666,0-39.243,17.593-39.243,39.275c0,16.937, 10.726,31.296, 25.753,36.82L 246.334,269.088 l 24.935,0 l0-111.221 
	c 16.089-4.87, 27.813-19.847, 27.813-37.539C 299.082,98.646, 281.506,81.053, 259.824,81.053z M 359.205,229.173
	c-0.492,27.78-11.871,52.768-30.119,71.075c-18.754,18.674-44.393,30.186-72.942,30.186l0,25.15 c-0.13,0-0.276,0.015-0.405,0.015
	c-34.943-0.015-66.452-14.14-89.375-37.035c-22.91-22.894-37.053-54.433-37.053-89.391l-22.727,0 
	c 0.015,82.392, 66.775,149.168, 149.154,149.168c 79.855,0, 145.030-62.704, 148.985-141.612c 0.164-2.488, 0.245-4.987, 0.296-7.556L 359.205,229.173 
	z"  />
<glyph unicode="&#xe045;" d="M 326.578,220.347L 326.578,356.993 c0,38.717-31.493,70.213-70.21,70.213c-38.703,0-70.179-31.496-70.179-70.213l0-136.646 
	c-26.375-21.109-42.152-53.285-42.152-87.687c0-61.952, 50.395-112.35, 112.331-112.35c 61.935,0, 112.33,50.397, 112.33,112.35
	C 368.697,167.062, 352.934,199.237, 326.578,220.347z M 256.368,50.973c-45.112,0-81.672,36.561-81.672,81.688
	c0,30.758, 17.020,57.554, 42.133,71.485L 216.829,356.993 c0,21.844, 17.708,39.551, 39.539,39.551c 21.843,0, 39.537-17.707, 39.537-39.551l0-152.879 
	c 25.129-13.933, 42.133-40.695, 42.133-71.453C 338.037,87.533, 301.496,50.973, 256.368,50.973z M 271.671,183.185L 271.671,284.021 
	c0,8.472-6.833,15.32-15.303,15.32c-8.471,0-15.337-6.849-15.337-15.32l0-100.836 c-21.68-6.576-37.478-26.702-37.478-50.524
	c0-29.173, 23.643-52.816, 52.815-52.816c 29.169,0, 52.796,23.644, 52.796,52.816C 309.164,156.482, 293.384,176.608, 271.671,183.185z"  />
<glyph unicode="&#xe046;" d="M 425.286,324.206L 87.838,324.206 l0-238.792 l 337.448,0 L 425.286,324.206 z M 194.583,249.435l-72.7-30.599l0,20.195 l 55.191,19.644l-55.191,19.828
	l0,19.645 l 72.7-30.848L 194.583,249.435 z M 285.146,222.086l-68.578,0 l0,16.568 l 68.578,0 L 285.146,222.086 z M 37.761,412.445l0-377.107 l 436.664,0 L 474.425,412.445 L 37.761,412.445 z
	 M 450.325,60.376L 62.798,60.376 L 62.798,349.244 l 387.527,0 L 450.325,60.376 z"  />
<glyph unicode="&#xe047;" d="M 272.366,380.487c-26.162,91.959-3.893,28.323-120.474-4.865C 35.345,342.448, 20.562,408.903, 46.921,316.312
	c 17.625-61.947, 86.071-184.552, 167.76-161.3C 296.401,178.259, 289.992,318.534, 272.366,380.487z M 116.544,297.232
	c-14.587-1.882-26.098-9.75-28.845-18.855c-1.046,1.717-1.732,3.566-1.962,5.535c-1.47,11.381, 11.677,22.434, 29.368,24.704
	c 17.693,2.267, 33.192-5.128, 34.63-16.48c 0.293-1.976, 0.099-3.939-0.492-5.863C 144.306,294.385, 131.159,299.096, 116.544,297.232z
	 M 203.889,199.631c-24.528-6.998-47.091-3.336-54.056,21.077l 88.622,26.195C 245.388,222.498, 228.415,206.614, 203.889,199.631z
	 M 224.621,327.982c-13.407-6.095-22.107-17.021-22.040-26.512c-1.471,1.327-2.715,2.89-3.499,4.7
	c-4.775,10.437, 4.545,24.88, 20.8,32.247c 16.218,7.389, 33.222,4.922, 37.964-5.503c 0.82-1.822, 1.21-3.753, 1.21-5.762
	C 251.961,333.448, 238.030,334.083, 224.621,327.982z M 359.482,220.265c-24.297,8.43-42.25,17.882-55.753,26.701
	c-4.614-30.377-13.345-53.044-24.104-69.974c 3.074-0.915, 6.311-1.569, 9.778-1.886c 14.685-1.293, 27.603,3.94, 32.244,12.21
	c 0.653-1.858, 0.917-3.834, 0.72-5.809c-1.013-11.425-16.221-19.408-34.010-17.814c-5.625,0.487-10.824,1.912-15.273,3.955
	c-15.401-19.749-33.714-29.826-50.032-34.811c-0.916-55.902, 13.245-112.614, 61.25-129.292
	c 80.282-27.831, 155.529,90.703, 176.62,151.556C 492.285,245.444, 474.004,180.541, 359.482,220.265z M 350.688,48.371l-87.606,29.363
	c 8.339,23.987, 31.358,27.266, 55.46,18.901C 342.641,88.265, 358.992,72.357, 350.688,48.371z M 419.62,125.105
	c-6.899-9.167-24.001-7.917-38.261,2.804c-14.225,10.716-20.207,26.839-13.339,36.002c 1.208,1.579, 2.71,2.856, 4.478,3.828
	c-2.156-9.264, 3.99-21.795, 15.729-30.651c 11.807-8.851, 25.54-11.259, 33.814-6.653C 421.617,128.489, 420.832,126.68, 419.62,125.105z"  />
<glyph unicode="&#xe048;" d="M 471.68,79.465c-0.098,3.891-2.715,8.992-5.821,11.364c0,0-25.409,19.57-45.324,27.973
	c-21.843,9.22-61.413,26.1-61.413,26.1c-3.564,1.536-9.321,3.526-12.721,4.462c-1.83,0.493-5.823,2.072-9.517,3.877
	c-29.957-11.514-59.093-15.422-84.666-15.422c-37.313,0.029-67.104,8.188-81.624,13.112c-3.89-1.094-15.041-4.562-18.474-6.029
	c0,0-39.54-16.88-61.415-26.1c-19.882-8.402-45.325-27.973-45.325-27.973c-3.071-2.372-5.723-7.474-5.821-11.364l-0.622-52.096
	c-0.096-3.89, 3.043-7.047, 6.935-7.047L 465.4,20.322 c 3.856,0, 6.964,3.157, 6.934,7.047L 471.68,79.465z M 167.816,284.764
	c0,0, 1.108-34.369, 12.62-41.566c 1.079-0.689, 2.979-9.027, 2.879-8.451c 1.145-11.886, 9.059-22.318, 9.059-22.318
	c 0.359-3.893-0.948-9.779-2.877-13.178l-9.747-16.907c-4.054-0.017-7.88-2.388-9.581-6.349c-2.353-5.328, 0.099-11.537, 5.428-13.894
	l0,0c 0.852-0.312, 33.488-14.507, 79.433-14.538l 0.066,0 c 24.724,0, 53.337,4.188, 82.507,17.090c 5.364,2.354, 7.749,8.615, 5.396,13.945
	c-1.861,4.172-6.080,6.521-10.398,6.227c-4.611,7.426-10.563,15.127-10.563,15.127c-2.353,3.055-3.236,8.555-1.961,12.247
	l 8.666,24.724c 1.273,3.66, 2.451,7.162, 2.519,7.701c 0.096,0.57, 0.882,1.616, 1.697,2.305c0,0,0,0, 0.592,0.814
	c 3.138,4.418, 5.231,12.117, 6.213,17.516c 1.47,7.947, 0.981,20.061, 0.981,20.061c-0.133,3.892, 0.325,10.203, 1.078,14.033l 2.551,13.337
	c 0.751,3.793, 0.884,10.075, 0.325,13.9l-10.233,50.44c-0.295,1.917-9.551,52.029-81.329,52.029c-71.78,0-83.455-50.112-83.652-52.076
	l-7.52-65.93c-0.326-3.855, 0.783-9.774, 2.484-13.143C 166.148,294.555, 167.649,288.641, 167.816,284.764z M 298.032,314.93
	c 11.643,0, 21.126-9.484, 21.126-21.157c0-11.69-9.483-21.139-21.126-21.139c-11.708,0-35.090,9.448-35.090,21.139
	C 262.942,305.445, 286.324,314.93, 298.032,314.93z M 253.986,246.239c 7.423,0, 13.439-4.608, 13.439-10.333
	c0-5.721-6.017-10.332-13.439-10.332c-7.394,0-13.41,4.611-13.41,10.332C 240.576,241.631, 246.593,246.239, 253.986,246.239z
	 M 208.266,314.93c 11.643,0, 35.027-9.484, 35.027-21.157c0-11.69-23.385-21.139-35.027-21.139c-11.705,0-21.188,9.448-21.188,21.139
	C 187.078,305.445, 196.561,314.93, 208.266,314.93z"  />
<glyph unicode="&#xe049;" d="M 267.179,87.051c-1.756,15.215-17.393,25.909-34.934,23.89c-17.537-2.023-30.33-16.001-28.578-31.213
		c 1.756-15.217, 17.396-25.912, 34.936-23.886C 256.14,57.86, 268.933,71.837, 267.179,87.051zM 271.315,54.872c-8.928-3.498-13.697-12.612-10.664-20.351c 3.037-7.747, 12.73-11.186, 21.654-7.685
		c 8.924,3.498, 13.697,12.612, 10.664,20.352C 289.931,54.931, 280.237,58.371, 271.315,54.872zM 443.157,297.718c-9.924,26.373-30.6,47.198-56.51,57.506c-0.721,4.56-1.908,9.048-3.555,13.429
		c-9.979,26.521-35.719,44.339-64.047,44.339c-8.229,0-16.332-1.479-24.086-4.398c-5.465-2.055-10.611-4.786-15.332-8.112
		c-14.807,14.041-34.523,22.049-55.537,22.052c-9.715,0-19.287-1.747-28.447-5.194c-22.584-8.498-39.711-26.091-47.625-48.301
		c-7.129-1.024-14.135-2.824-20.945-5.386c-24.916-9.374-44.689-27.891-55.678-52.136c-10.99-24.245-11.879-51.319-2.506-76.233
		c 10.172-27.038, 31.549-48.174, 58.312-58.214c 0.645-2.611, 1.441-5.185, 2.389-7.71c 9.984-26.527, 35.723-44.347, 64.051-44.347
		c 8.229,0, 16.332,1.479, 24.086,4.396c 4.957,1.866, 9.604,4.247, 13.918,7.124c 13.051-8.539, 28.314-13.129, 44.188-13.129
		c 9.715,0, 19.287,1.748, 28.447,5.193c 17.293,6.507, 31.756,18.754, 41.072,34.464c 1.531-0.071, 3.062-0.106, 4.588-0.106
		c 11.973,0, 23.76,2.15, 35.033,6.393C 436.407,188.698, 462.511,246.284, 443.157,297.718z"  />
<glyph unicode="&#xe04a;" d="M 401.858,272.948c0,18.415-3.433,33.365-21.861,33.365l-0.138,0 c 13.774,2.35, 16.537,15.661, 16.537,31.804
		c0,17.775-3.312,32.195-21.104,32.195l-15.285,0 c 12.057,3.413, 14.562,16.354, 14.562,31.854c0,18.089-3.373,32.758-21.458,32.758
		L 198.813,434.924 c-50.815,0-92.016-41.194-92.016-92.017c0,0,0-98.127,0-98.203c0-36.040, 19.936-64.626, 51.273-76.835
		c 24.394-16.037, 73.521-54.229, 83.988-107.306c0-20.663,0-40.044,0-40.044s 68.626-7.453, 68.626,57.061
		c0,75.979-47.833,88.326-9.752,90.177l 56.8,0 c 20.065,0, 23.791,16.267, 23.791,36.337c0,17.426-2.824,31.959-16.699,35.49l 15.173,0 
		C 398.426,239.584, 401.858,254.518, 401.858,272.948z"  />
<glyph unicode="&#xe04b;" d="M 261.992,240.246c0-16.044, 2.982-29.038, 19.029-29.038l 88.588,0 c 16.043,0, 19.022,12.994, 19.022,29.038l0,0
		c0,16.046-2.979,29.050-19.022,29.050l-88.588,0 C 264.975,269.296, 261.992,256.292, 261.992,240.246L 261.992,240.246zM 245.909,171.4c0-16.035, 2.988-29.050, 19.017-29.050L 383.48,142.35 c 16.047,0, 19.035,13.015, 19.035,29.050l0,0
		c0,16.043-2.988,29.047-19.035,29.047L 264.926,200.447 C 248.897,200.447, 245.909,187.443, 245.909,171.4L 245.909,171.4zM 261.773,101.5c0-16.033, 2.988-29.036, 19.014-29.036l 93.52,0 c 16.043,0, 19.034,13.003, 19.034,29.036l0,0
		c0,16.054-2.991,29.050-19.034,29.050l-93.52,0 C 264.762,130.55, 261.773,117.554, 261.773,101.5L 261.773,101.5zM 277.208,30.14c0-16.035, 2.988-29.039, 19.021-29.039L 349.5,1.101 c 16.034,0, 19.027,13.004, 19.027,29.039l0,0
		c0,16.053-2.993,29.050-19.027,29.050l-53.271,0 C 280.196,59.189, 277.208,46.192, 277.208,30.14L 277.208,30.14zM 269.819,4.681c-3.258,6.221-4.71,14.074-4.71,25.459c0,11.392, 1.452,19.251, 4.71,25.47
	c 1.126,2.159, 2.671,4.441, 4.749,6.54c-11.305,1.479-17.19,8.165-20.19,13.895c-3.256,6.222-4.703,14.071-4.703,25.456
	c0,11.394, 1.447,19.248, 4.703,25.473c 0.891,1.696, 2.040,3.476, 3.501,5.185c-10.767,1.689-16.441,8.195-19.365,13.781
	c-3.257,6.222-4.709,14.076-4.709,25.462c0,11.388, 1.452,19.243, 4.709,25.466c 2.874,5.486, 8.411,11.852, 18.818,13.677
	c-1.101,1.409-2.007,2.854-2.732,4.238c-3.257,6.22-4.71,14.074-4.71,25.465c0,11.393, 1.453,19.246, 4.71,25.468
	c 3.394,6.479, 10.475,14.206, 24.944,14.206l 18.061,0 c 1.859,13.459, 39.114,42.243, 39.114,101.103c0,64.51-68.624,57.057-68.624,57.057
	s0-19.38,0-40.044c-12.038-44.633-91.93-113.537-114.558-132.355c-26.783-13.676-43.424-40.396-43.424-73.333
	c0-0.073,0-98.201,0-98.201c0-50.822, 41.199-92.019, 92.015-92.019l 69.2,0 C 270.758,2.986, 270.255,3.844, 269.819,4.681z"  />
<glyph unicode="&#xe04c;" d="M 260.584,338.621L 260.584,389.983L 422.158,389.983L 422.158,338.621L 260.584,338.621 	zM 260.584,260.295L 260.584,311.657L 422.158,311.657L 422.158,260.295L 260.584,260.295 	zM 260.584,137.496L 260.584,188.863L 422.158,188.863L 422.158,137.496L 260.584,137.496 	zM 260.584,59.176L 260.584,110.539L 422.158,110.539L 422.158,59.176L 260.584,59.176 	zM 87.979,388.72L 216.847,388.72L 216.847,259.85L 87.979,259.85zM 87.979,188.411L 216.847,188.411L 216.847,59.541L 87.979,59.541z"  />
<glyph unicode="&#xe04d;" d="M 57.012,310.11l 112.223,0 L 169.235,422.333 L 57.012,422.333 L 57.012,310.11 z M 198.9,310.11l 112.223,0 L 311.123,422.333 L 198.9,422.333 L 198.9,310.11 z M 340.79,422.333L 340.79,310.11 l 112.218,0 
	L 453.008,422.333 L 340.79,422.333 z M 57.012,168.864l 112.223,0 L 169.235,281.090 L 57.012,281.090 L 57.012,168.864 z M 198.9,168.864l 112.223,0 L 311.123,281.090 L 198.9,281.090 L 198.9,168.864 z M 340.79,168.864
	l 112.218,0 L 453.008,281.090 L 340.79,281.090 L 340.79,168.864 z M 57.012,27.62l 112.223,0 L 169.235,139.844 L 57.012,139.844 L 57.012,27.62 z M 198.9,27.62l 112.223,0 L 311.123,139.844 L 198.9,139.844 L 198.9,27.62 z
	 M 340.79,27.62l 112.218,0 L 453.008,139.844 L 340.79,139.844 L 340.79,27.62 z"  />
<glyph unicode="&#xe04e;" d="M 87.898,388.72L 216.766,388.72L 216.766,259.85L 87.898,259.85zM 291.964,388.72L 420.834,388.72L 420.834,259.85L 291.964,259.85zM 87.898,188.411L 216.766,188.411L 216.766,59.541L 87.898,59.541zM 291.964,188.411L 420.834,188.411L 420.834,59.541L 291.964,59.541z"  />
<glyph unicode="&#xe04f;" d="M 473.307,289.824l0,13.668 c-21.581,2.176-36.070,19.555-37.802,41.239L 76.078,344.731 c-1.699-21.685-16.218-39.063-37.802-41.239
	l0-9.972 c 6.899,0, 9.974-5.591, 9.974-12.479c0-6.912-3.074-12.49-9.974-12.49l0-12.1 c 6.899,0, 9.974-5.607, 9.974-12.494
	c0-6.896-3.074-12.488-9.974-12.488l0-11.904 c 6.899,0, 9.974-5.609, 9.974-12.495c0-6.896-3.074-12.489-9.974-12.489l0-11.903 
	c 6.899,0, 9.974-5.593, 9.974-12.494c0-6.883-3.074-12.491-9.974-12.491l0-13.684 c 21.584-2.16, 36.103-19.539, 37.802-41.239l 359.427,0 
	c 1.731,21.7, 16.221,39.079, 37.802,41.239l0,9.987 c-6.899,0-9.975,5.594-9.975,12.494c0,6.882, 3.075,12.49, 9.975,12.49l0,12.083 
	c-6.899,0-9.975,5.593-9.975,12.495c0,6.896, 3.075,12.49, 9.975,12.49l0,11.902 c-6.899,0-9.975,5.592-9.975,12.494
	c0,6.898, 3.075,12.491, 9.975,12.491l0,11.919 c-6.899,0-9.975,5.593-9.975,12.49C 463.332,284.231, 466.407,289.824, 473.307,289.824z
	 M 116.564,154.144L 91.482,154.144 L 91.482,293.39 l 25.082,0 L 116.564,154.144 z M 274.842,158.526l-28.025,0 l0,89.65 l-34.762,0 l0,21.141 
	c 4.87-0.127, 9.58,0.233, 14.126,1.083c 4.513,0.85, 8.634,2.348, 12.23,4.54c 3.63,2.177, 6.702,5.023, 9.189,8.588
	c 2.484,3.548, 4.152,7.947, 4.938,13.23l 22.303,0 L 274.841,158.526 z M 420.102,154.144l-25.050,0 L 395.052,293.39 l 25.050,0 L 420.102,154.144 z"  />
<glyph unicode="&#xe050;" d="M 203.447,277.069l-54.568,54.566c 27.503,27.173, 65.183,43.913, 106.927,43.913c 42.13-0.014, 79.972-16.983, 107.622-44.577
	c 27.594-27.648, 44.561-65.492, 44.578-107.629l 66.177,0 c-0.024,120.624-97.761,218.361-218.376,218.386
	c-59.897,0-114.277-24.203-153.724-63.295l-50.36,50.36l 0.003-151.725L 203.447,277.068 z M 363.991,116.33
	c-27.605-27.918-65.809-45.184-108.183-45.176c-42.139,0.008-79.978,16.981-107.623,44.574
	c-27.601,27.645-44.565,65.482-44.582,107.614L 37.436,223.342 c 0.017-120.614, 97.751-218.347, 218.373-218.374
	c 60.54,0.008, 115.433,24.73, 154.979,64.562l 48.997-49L 459.785,168.577 L 311.742,168.577 L 363.991,116.33z"  />
<glyph unicode="&#xe051;" d="M 368.49,384.396l-51.635,16.922c-3.596-9.144-9.45-16.99-16.58-23.022c-11.903-10.022-27.371-15.646-43.885-15.663
	c-16.515,0.017-31.982,5.64-43.788,15.632c-7.194,6.063-13.047,13.909-16.643,23.053l-51.64-16.922L 42.293,142.839l 40.648-41.498
	l 64.487,149.598l0-204.007 l 217.957,0 L 365.385,250.938 l 64.455-149.598l 40.648,41.498L 368.49,384.396z"  />
<glyph unicode="&#xe052;" d="M 256.175,336.344c-61.939,0-112.299-50.391-112.299-112.312c0-61.92, 50.36-112.302, 112.299-112.302
	c 61.905,0, 112.28,50.382, 112.28,112.302C 368.455,285.953, 318.080,336.344, 256.175,336.344z M 256.175,142.375
	c-45.114,0-81.656,36.561-81.656,81.656s 36.542,81.639, 81.656,81.639c 45.078,0, 81.621-36.543, 81.621-81.639
	S 301.253,142.375, 256.175,142.375z M 256.14,90.854c-12.166,0-22.009-9.86-22.009-22.028l0-31.769 
	c0-12.162, 9.844-22.023, 22.009-22.023c 12.199,0, 22.042,9.861, 22.042,22.023l0,31.769 C 278.182,80.993, 268.339,90.854, 256.14,90.854
	z M 256.14,357.21c 12.165,0, 22.042,9.875, 22.042,22.038l0,31.77 c0,12.147-9.877,22.022-22.042,22.022
	c-12.131,0-22.009-9.875-22.009-22.022l0-31.77 C 234.131,367.085, 244.009,357.21, 256.14,357.21z M 365.904,311.75
	c 5.623,0, 11.282,2.144, 15.581,6.442l 22.467,22.466c 8.599,8.603, 8.599,22.55,0,31.169c-8.633,8.597-22.563,8.597-31.164,0
	l-22.466-22.473c-8.6-8.582-8.6-22.543,0-31.163C 354.637,313.894, 360.265,311.75, 365.904,311.75z M 130.83,129.85l-22.467-22.451
	c-8.604-8.601-8.604-22.549,0-31.146c 4.299-4.301, 9.942-6.476, 15.566-6.476c 5.639,0, 11.298,2.175, 15.582,6.476l 22.481,22.464
	c 8.584,8.582, 8.584,22.544,0,31.133C 153.392,138.469, 139.428,138.469, 130.83,129.85z M 443.127,246.069l-31.751,0 
	c-12.164,0-22.042-9.875-22.042-22.038c0-12.167, 9.878-22.026, 22.042-22.026l 31.751,0 c 12.166,0, 22.043,9.859, 22.043,22.012
	C 465.17,236.194, 455.293,246.054, 443.127,246.069z M 122.98,224.017c0,12.178-9.86,22.037-22.044,22.053L 69.184,246.070 
	c-12.164,0-22.023-9.875-22.023-22.038c0-12.167, 9.859-22.026, 22.023-22.026l 31.752,0 C 113.12,202.005, 122.98,211.864, 122.98,224.017z
	 M 381.501,129.85c-8.614,8.635-22.562,8.635-31.163,0.016c-8.615-8.604-8.615-22.55-0.016-31.148l 22.466-22.464
	c 4.317-4.301, 9.942-6.476, 15.597-6.476c 5.625,0, 11.253,2.155, 15.551,6.458c 8.615,8.614, 8.615,22.562, 0.017,31.163L 381.501,129.85z
	 M 130.83,318.192c 4.297-4.298, 9.94-6.442, 15.564-6.442c 5.656,0, 11.281,2.144, 15.599,6.442c 8.584,8.62, 8.584,22.566,0,31.163
	l-22.466,22.473c-8.602,8.597-22.531,8.597-31.147,0c-8.62-8.619-8.62-22.566,0-31.169L 130.83,318.192z"  />
<glyph unicode="&#xe053;" d="M 146.435,284.859c 6.213,17.369, 13.604,31.495, 23.118,42.387c 9.32,10.756, 22.012,18.604, 36.234,18.572
	c 14.225,0.031, 26.914-7.816, 36.236-18.572c 9.515-10.892, 16.903-25.018, 23.119-42.402l 34.858-98.123
	c 4.709-13.305, 9.976-22.231, 13.965-26.747c 4.218-4.595, 5.918-4.416, 6.082-4.448c 0.131,0.032, 1.83-0.146, 6.017,4.448
	c 4.022,4.516, 9.288,13.442, 13.998,26.747l 34.859,98.139c 9.842,27.504, 26.49,51.902, 46.858,71.945
	C 382.934,405.447, 323.186,436.66, 256.084,436.66c-117.039,0-211.939-94.898-211.939-211.969c0-37.902, 10.006-73.447, 27.438-104.254
	c 16.316,17.41, 31.13,41.124, 39.992,66.283L 146.435,284.859z M 446.375,318.12c-14.456-15.173-25.901-32.802-32.146-50.591
	l-34.864-98.104c-6.211-17.36-13.599-31.489-23.085-42.38c-9.317-10.748-22.009-18.609-36.232-18.579
	c-14.257-0.030-26.946,7.817-36.267,18.579c-9.518,10.891-16.908,25.020-23.119,42.38l-34.828,98.104
	c-4.742,13.342-10.007,22.268-13.998,26.784c-4.186,4.577-5.885,4.416-6.049,4.444c-0.16-0.028-1.862,0.133-6.049-4.444
	c-4.023-4.493-9.287-13.442-13.998-26.784l-34.823-98.104c-11.938-33.485-30.938-63.278-52.915-85.876
	c 38.818-43.443, 95.264-70.832, 158.082-70.832c 117.070,0, 211.97,94.915, 211.97,211.975
	C 468.054,258.211, 460.241,289.912, 446.375,318.12z"  />
<glyph unicode="&#xe054;" d="M 60.328,53.207L 451.671,53.207L 451.671,24.098L 60.328,24.098zM 462.409,295.061c-0.042,8.307-70.976,128.842-70.976,128.842L 120.567,423.903 c0,0-71.042-120.58-71.042-128.992
		c0-16.285, 13.205-29.492, 29.493-29.492c 16.288,0, 29.493,13.207, 29.493,29.492c0-16.285, 13.204-29.492, 29.492-29.492
		c 16.286,0, 29.492,13.207, 29.492,29.492c0-16.285, 13.204-29.492, 29.491-29.492c 16.289,0, 29.493,13.207, 29.493,29.492
		c0-16.285, 13.203-29.492, 29.492-29.492s 29.493,13.207, 29.493,29.492c0-16.285, 13.204-29.492, 29.492-29.492
		c 16.287,0, 29.493,13.207, 29.493,29.492c0-16.285, 13.204-29.492, 29.492-29.492c 16.288,0, 29.492,13.207, 29.492,29.492
		c0-16.285, 13.204-29.492, 29.493-29.492c 16.288,0, 29.492,13.207, 29.492,29.492l 0.058,0 L 462.409,295.061zM 432.889,84.826L 432.889,241.742 c-10.888,0.006-21.021,3.301-29.457,8.943c-8.445-5.65-18.591-8.945-29.492-8.945
		s-21.047,3.295-29.492,8.945c-8.445-5.65-18.59-8.945-29.493-8.945c-10.902,0-21.047,3.295-29.492,8.945
		c-8.445-5.65-18.591-8.945-29.493-8.945s-21.047,3.295-29.492,8.945c-8.446-5.65-18.591-8.945-29.493-8.945
		s-21.046,3.295-29.491,8.945c-8.445-5.65-18.59-8.945-29.492-8.945s-21.047,3.295-29.492,8.945
		c-8.421-5.633-18.534-8.926-29.4-8.943l0-156.916 l 213.294,0 L 292.404,209.357 l 94.716,0 l0-124.531 L 432.889,84.826 z M 249.044,129.35L 122.978,129.35 l0,80.508 l 126.066,0 
		L 249.044,129.35 z"  />
<glyph unicode="&#xe055;" d="M 87.412,392.441L 421.683,392.441L 421.683,56.294L 87.412,56.294z"  />
<glyph unicode="&#xe056;" d="M 388.45,243.248c-12.509,6.719-28.093,2.024-34.829-10.467l-36.202-66.758L 317.419,379.337 c0,11.295-9.123,20.453-20.452,20.453
	c-11.299,0-20.457-9.157-20.457-20.453l0-151.362 c0-4.267-3.465-7.736-7.75-7.736c-4.281,0-7.749,3.469-7.749,7.736L 261.011,419.916 
	c0,11.318-9.158,20.475-20.474,20.475c-11.28,0-20.469-9.157-20.469-20.475l0-195.652 c0-4.283-3.467-7.735-7.734-7.735
	c-4.268,0-7.769,3.452-7.769,7.735L 204.565,381.739 c0,11.312-9.138,20.468-20.437,20.468c-11.316,0-20.472-9.156-20.472-20.468l0-157.476 
	c0-4.283-3.465-7.752-7.75-7.752c-4.284,0-7.75,3.469-7.75,7.752L 148.156,328.29 c0,11.313-9.155,20.47-20.472,20.47
	c-11.281,0-20.453-9.157-20.453-20.47l0-236.074 c0-7.245, 3.876-17.628, 8.65-23.087l 44.799-51.426
	c 4.743-5.426, 14.571-9.926, 21.831-9.926l 100.738,0 c 7.259,0, 16.007,5.233, 19.456,11.593l 96.21,189.065
	C 405.619,220.926, 400.942,236.509, 388.45,243.248z"  />
<glyph unicode="&#xe057;" d="M 169.763,14.549L 47.189,137.125L 47.189,310.469L 169.763,433.046L 343.109,433.046L 465.688,310.469L 465.688,137.125L 343.109,14.549 	z"  />
<glyph unicode="&#xe058;" d="M 153.638,326.362L 358.363,326.362L 358.363,121.637L 153.638,121.637zM 385.554,44.351c0-2.915, 3.021-5.379, 6.602-5.379l 41.705,0 c 3.58,0, 6.604,3.024, 6.604,6.604l0,41.697 
	c0,3.89-2.537,6.602-4.818,6.602c-13.682,0-24.811,11.248-24.811,25.074c0,13.825, 11.129,25.072, 24.811,25.072
	c 1.42,0, 2.492,0.963, 3.002,1.537c 1.152,1.291, 1.812,3.137, 1.812,5.065l0,41.7 c0,3.89-2.537,6.604-4.816,6.604
	c-13.68,0-24.809,11.245-24.809,25.070c0,13.824, 11.129,25.071, 24.811,25.071c 2.281,0, 4.818,2.711, 4.818,6.603l0,41.701 
	c0,3.892-2.537,6.603-4.818,6.603c-13.682,0-24.811,11.248-24.811,25.072c0,13.825, 11.129,25.072, 24.811,25.072
	c 2.281,0, 4.818,2.712, 4.818,6.604L 440.465,402.426 c0,3.579-3.023,6.603-6.604,6.603l-41.705,0 c-3.58,0-6.602-2.547-6.602-5.562
	c0-14.094-11.162-25.561-24.883-25.561s-24.883,11.467-24.883,25.561c0,3.015-3.021,5.562-6.6,5.562l-41.705,0 
	c-3.576,0-6.604-2.547-6.604-5.562c0-14.094-11.162-25.561-24.881-25.561c-13.723,0-24.881,11.467-24.885,25.56
	c0,3.016-3.025,5.562-6.605,5.562l-41.697,0 c-3.578,0-6.602-2.547-6.602-5.562c0-14.094-11.162-25.561-24.885-25.561
	c-13.721,0-24.883,11.467-24.883,25.561c0,3.015-3.021,5.562-6.602,5.562L 78.14,409.028 c-3.58,0-6.604-3.023-6.604-6.603l0-41.702 
	c0-3.58, 2.547-6.604, 5.561-6.604c 14.092,0, 25.557-11.247, 25.557-25.072c0-13.824-11.465-25.072-25.557-25.072
	c-3.014,0-5.561-3.023-5.561-6.603l0-41.699 c0-3.58, 2.547-6.604, 5.561-6.604c 14.094-0.002, 25.557-11.249, 25.557-25.071
	c0-13.825-11.465-25.070-25.557-25.070c-3.014,0-5.561-3.025-5.561-6.604l0-41.698 c0-3.58, 2.547-6.604, 5.561-6.604
	c 14.092,0, 25.557-11.247, 25.557-25.072c0-13.826-11.465-25.074-25.557-25.074c-3.014,0-5.561-3.022-5.561-6.602l0-41.697 
	c0-3.58, 3.023-6.604, 6.604-6.604l 41.701,0 c 3.58,0, 6.602,2.464, 6.602,5.379c0,13.991, 11.162,25.374, 24.883,25.374
	c 13.723,0, 24.885-11.383, 24.885-25.374c0-2.915, 3.023-5.379, 6.602-5.379l 41.701,0 c 3.58,0, 6.604,2.464, 6.604,5.379
	c0,13.991, 11.16,25.374, 24.883,25.374c 13.719,0, 24.881-11.383, 24.881-25.374c0-2.915, 3.027-5.379, 6.604-5.379l 41.705,0 
	c 3.578,0, 6.6,2.464, 6.6,5.379c0,13.991, 11.162,25.374, 24.883,25.374S 385.554,58.342, 385.554,44.351z M 129.958,97.959L 129.958,350.043 
	l 252.084,0 l0-252.084 L 129.958,97.959 z"  />
<glyph unicode="&#xe059;" d="M 36.571,210.314l0-85.244 l 11.836,0 l-0.016-0.053l 415.982,0 l-0.018,0.053l 11.854,0 l0,85.244 L 36.571,210.314 z M 92.539,148.228L 67.637,148.228 l0,33.657 
	l 24.902,0 L 92.539,148.228 z M 153.527,148.228l-24.919,0 l0,33.661 l 24.919,0 L 153.527,148.228 z M 214.501,148.228l-24.919,0 l0,33.661 l 24.919,0 L 214.501,148.228 z
	 M 426.537,146.836c-10.842,0-19.652,8.797-19.652,19.645c0,10.857, 8.811,19.67, 19.652,19.67c 10.857,0, 19.654-8.812, 19.654-19.67
	C 446.191,155.633, 437.395,146.836, 426.537,146.836z M 387.328,438.037L 125.372,438.037 l-76.98-197.079l 415.982,0 L 387.328,438.037z
	 M 36.571,9.113L 476.21,9.113 l0,85.254 L 36.571,94.367 L 36.571,9.113 z M 426.537,70.189c 10.857,0, 19.654-8.793, 19.654-19.635
	c0-10.868-8.797-19.662-19.654-19.662c-10.842,0-19.652,8.794-19.652,19.662C 406.885,61.396, 415.695,70.189, 426.537,70.189z
	 M 189.582,65.949l 24.919,0 l0-33.684 l-24.919,0 L 189.582,65.949 z M 128.608,65.949l 24.919,0 l0-33.684 l-24.919,0 L 128.608,65.949 z M 67.637,65.949l 24.902,0 l0-33.684 
	L 67.637,32.265 L 67.637,65.949 z"  />
<glyph unicode="&#xe05a;" d="M 391.744,367.454c-2.849,7.245-11.481,13.144-19.297,13.144L 138.762,380.598 c-7.752,0-16.449-5.898-19.26-13.144l-77.57-198.531
	l 427.41,0 L 391.744,367.454z M 35.85,138.266l0-56.496 c0-7.765, 6.344-14.127, 14.129-14.127L 180.49,67.643 l0,24.055 l 24.95,0 l0-24.055 l 20.079,0 l0,24.055 
	l 24.953,0 l0-24.055 l 20.074,0 l0,24.055 l 24.92,0 l0-24.055 l 20.082,0 l0,24.055 L 340.5,91.698 l0-24.055 l 120.832,0 c 7.752,0, 14.125,6.362, 14.125,14.127l0,56.496 L 35.85,138.266 
	z"  />
<glyph unicode="&#xe05b;" d="M 166.792,61.687c-28.153,0-51.056,22.903-51.056,51.055L 115.736,335.259 c0,4.648-3.783,8.432-8.432,8.432
		c-4.65,0-8.434-3.783-8.434-8.432l0-126.3 L 56.249,208.959 l0,126.3 c0,28.149, 22.904,51.055, 51.057,51.055c 28.15,0, 51.054-22.905, 51.054-51.055
		l0-222.518 c0-4.649, 3.782-8.433, 8.434-8.433c 4.648,0, 8.433,3.783, 8.433,8.433L 175.227,313.069 c0,28.151, 22.902,51.055, 51.055,51.055
		c 28.151,0, 51.055-22.903, 51.055-51.055l0-176.924 c0-4.649, 3.783-8.433, 8.433-8.433s 8.433,3.783, 8.433,8.433l0,154.32 l-0.045,0 
		c0,28.15, 22.903,51.056, 51.055,51.056s 51.055-22.905, 51.055-51.056l0-133.761 c0-4.651, 3.783-8.432, 8.433-8.432
		s 8.433,3.78, 8.433,8.432l0,65.702 l 42.622,0 l0-65.702 c0-28.152-22.903-51.055-51.055-51.055c-28.152,0-51.056,22.902-51.056,51.055
		L 353.645,290.466 c0,4.649-3.781,8.434-8.432,8.434c-4.354,0-7.947-3.319-8.388-7.559l0-155.195 c0-28.15-22.903-51.055-51.055-51.055
		c-27.745,0-50.392,22.247-51.040,49.839l-0.015,0 l0,178.14 c0,4.651-3.782,8.435-8.433,8.435s-8.434-3.783-8.434-8.435l0-200.328 
		C 217.846,84.59, 194.944,61.687, 166.792,61.687L 166.792,61.687z"  />
<glyph unicode="&#xe05c;" d="M 252.555,118.178c-43.691,0-65.025-21.736-100.373-57.748c-1.793-1.826-3.639-3.701-5.494-5.59l 211.734,0 
		c-1.904,1.938-3.797,3.859-5.637,5.73C 317.521,96.494, 296.236,118.178, 252.555,118.178zM 313.51,393.16c-34.564,0-62.586-28.021-62.586-62.592l0-0.607 c0,24.131-19.562,43.693-43.695,43.693l-36.162,0 l0-34.262 
		c0-24.131, 19.561-43.693, 43.689-43.693l 18.855,0 l0-155.086 c 5.941,0.818, 12.232,1.242, 18.943,1.242c 6.713,0, 13.004-0.424, 18.943-1.242
		L 271.497,281.49 l 31.227,0 c 34.566,0, 62.588,28.023, 62.588,62.59L 365.312,393.16 L 313.51,393.16 z"  />
<glyph unicode="&#xe05d;" d="M 400.424,139.884l0,41.529 c-0.131,13.113-3.236,24.411-7.686,35.385c-4.609,10.921-10.431,21.124-19.618,30.461
	l-75.247,75.261c-0.492,0.326-3.534,4.578-5.299,9.108c-1.964,4.432-2.815,9.551-2.681,10.175L 289.893,422.193 l-65.896,0 l0,0l0,0l0-40.191 l0-40.199 
	c 0.131-0.624-0.718-5.743-2.648-10.175c-1.766-4.53-4.807-8.782-5.331-9.108l-75.279-75.261
	c-9.154-9.337-14.944-19.557-19.587-30.461c-4.447-10.974-7.554-22.271-7.685-35.385l0-41.529 l-57,0 l 89.964-114.019l 89.962,114.019l-57,0 
	l0,41.529 c-0.13,0.604, 0.688,5.76, 2.649,10.169c 1.799,4.545, 4.806,8.749, 5.332,9.092l 69.586,69.588l 69.592-69.588
	c 0.489-0.343, 3.562-4.547, 5.33-9.092c 1.927-4.463, 2.777-9.565, 2.646-10.169l0-41.529 l-58.667,0 l 89.966-114.019l 89.926,114.019L 400.424,139.884 z"  />
<glyph unicode="&#xe05e;" d="M 455.854,224.055l-81.985,64.687l0-39.098 L 216.115,249.644 l 87.116,85.074c 1.408,1.505, 6.379,4.858, 11.711,6.934
	c 5.229,2.224, 11.148,3.333, 13.177,3.238l 45.749,0 l0-39.128 l 81.985,64.669l-81.985,64.663l0-39.056 l-45.749,0 
	c-11.643-0.133-22.236-2.934-32.472-7.034c-10.204-4.221-19.754-9.613-28.157-17.691L 153.296,259.78
	c-1.406-1.537-6.376-4.821-11.707-6.912c-5.166-2.192-10.954-3.271-13.081-3.225L 57.383,249.643 l0,0l-1.964,0 l0-51.162 l 1.964,0 l0,0l 72.989,0 
	c 2.059,0.099, 7.945-1.014, 13.209-3.22c 5.299-2.074, 10.271-5.413, 11.678-6.951l 114.227-111.508
	c 8.404-8.082, 17.954-13.44, 28.156-17.692c 10.235-4.125, 20.831-6.918, 32.473-6.997l 43.754,0 l0-39.135 l 81.985,64.689l-81.985,64.668
	l0-39.113 l-43.754,0 c-2.062-0.063-7.946,1.047-13.179,3.238c-5.33,2.060-10.302,5.431-11.706,6.935l-87.152,85.086l 155.791,0 l0-39.109 
	L 455.854,224.055z"  />
</font>
</defs>
</svg>
